<?xml version="1.0" standalone="no"?>
<!DOCTYPE svg PUBLIC "-//W3C//DTD SVG 1.1//EN" "http://www.w3.org/Graphics/SVG/1.1/DTD/svg11.dtd">
<svg xmlns="http://www.w3.org/2000/svg">
<metadata>(c) Stephen Hutchings 2012</metadata>
<defs>
<font id="typicons" horiz-adv-x="1000" >
<font-face font-family="Font Awesome" font-weight="400" font-stretch="normal" units-per-em="1000" ascent="850" descent="-150" />
<missing-glyph horiz-adv-x="1000" />
<glyph glyph-name="music-outline" unicode="&#xe0b2;" d="M729 797q43 0 74-31t31-73v-529q0-86-69-147t-166-61q-93 0-159 56-30-50-85-79t-120-29q-96 0-166 61t-69 148q0 66 44 121t113 76v318q0 40 26 69t65 34l469 65q1 0 6 1t6 1z m-313-633q0 59 44 103t112 53v90l-156-23v-223z m313 0v529l-469-66v-413q-18 3-25 3-55 0-93-31t-38-73q0-44 39-74t93-31 92 31 38 74v319l260 39v-204q-18 3-26 3-54 0-92-31t-38-74 38-74 92-30 92 30 38 74z" horiz-adv-x="834" />
<glyph glyph-name="music" unicode="&#xe0b3;" d="M753 794q11 1 20-7t9-19v-629q0-54-46-92t-111-38-111 38-46 92 46 93 111 39v194l-313-33v-396q0-54-46-92t-111-38-111 38-46 92 46 92 111 38v538q0 10 7 18t16 9z" horiz-adv-x="781" />
<glyph glyph-name="search-outline" unicode="&#xe132;" d="M511 580q-65 0-111-46t-46-111 46-111 111-46 111 46 46 111-46 111-111 46z m0 51q86 0 147-61t61-147-61-148-147-61-148 61-61 148 61 147 148 61z m-511-555q0 68 48 115l118 119q-19 54-19 114 0 151 107 258t258 106 258-106 106-258-106-258-258-107q-54 0-114 19l-125-124q-49-41-110-41-68 0-115 48t-48 116z m336 88q-51 34-85 85l-130-131q-18-15-18-41 0-25 18-43t41-18q23 0 43 18z m175-1q108 0 184 77t76 184-76 184-184 76-184-76-77-184 77-184 184-77z" horiz-adv-x="875" />
<glyph glyph-name="search" unicode="&#xe133;" d="M511 788q151 0 258-106t106-258-106-258-258-107q-54 0-114 19l-121-121q-50-44-114-44-68 0-115 48t-48 116 46 114q53 54 79 80l40 40q-19 60-19 114 0 151 107 258t258 106z m0-625q108 0 184 77t76 184-76 184-184 76-184-76-77-184 77-184 184-77z m0 469q86 0 147-61t61-147-61-148-147-61-148 61-61 148 61 147 148 61z m0-364q65 0 111 46t46 111-46 111-111 46-111-46-46-111 46-111 111-46z" horiz-adv-x="875" />
<glyph glyph-name="mail" unicode="&#xe09a;" d="M834 688q44 0 74-30t30-74v-469q0-43-30-73t-74-31h-730q-44 0-74 31t-30 73v469q0 44 30 74t74 30h730z m-421-454l-81 71-190-190h655l-190 190-81-71q-24-20-56-20t-56 20z m-309-83l188 189-188 164v-353z m543 189l188-188v351z m188 244h-730v-11l343-300q9-8 23-8t23 8l343 300v11z" horiz-adv-x="938" />
<glyph glyph-name="heart" unicode="&#xe07e;" d="M508-66q-16 0-29 9-26 18-84 58t-154 113-134 109q-106 106-106 264 0 116 82 198t198 82q143 0 228-118 39 55 99 86t129 31q116 0 198-82t81-198q0-158-106-264-38-38-133-109t-155-113-84-58q-13-9-30-9z m-228 729q-73 0-124-51t-52-125q0-114 76-190 79-79 328-248 249 169 328 248 76 76 76 190 0 74-51 125t-124 51q-74 0-125-51t-51-125q0-21-16-36t-37-15-36 15-15 36q0 74-52 125t-124 51z" horiz-adv-x="1015" />
<glyph glyph-name="heart-filled" unicode="&#xe07f;" d="M456 487q0 95-67 161t-162 66-161-66-66-161q0-138 91-229 36-36 128-104t164-118l74-50q281 190 364 273 91 91 91 229 0 95-66 161t-161 66-161-66-66-161z" horiz-adv-x="911" />
<glyph glyph-name="star" unicode="&#xe0f0;" d="M741-118q-19 0-39 11l-214 121-215-121q-44-24-84 4-41 29-31 79l50 243q-10 9-39 35t-45 40l-99 90q-38 35-21 83t66 54l244 26 103 225q21 46 71 46 48 0 71-46l101-225 245-28q48-4 64-52t-21-83l-183-166 50-241q6-35-16-64t-60-29z m-425 343q-1-4-8-36t-17-84-19-93l190 108q26 14 51 0l190-108-44 214q-6 29 16 49l161 148-218 24q-30 4-41 30l-90 199-90-199q-13-26-43-30l-216-24 161-148q21-19 15-50z" horiz-adv-x="976" />
<glyph glyph-name="star-filled" unicode="&#xe0f1;" d="M297 498q69 153 114 253 6 15 24 15t24-15l114-253q164-18 274-30 15-3 21-18t-6-28l-204-186q33-161 55-270 3-15-10-26t-28-2l-240 136q-144-81-240-136-15-9-28 2t-11 26l56 270q-123 111-204 186-13 11-6 27t21 18z" horiz-adv-x="869" />
<glyph glyph-name="user-outline" unicode="&#xe112;" d="M313 689q-65 0-111-46t-46-111 46-111 111-46 111 46 46 111-46 111-111 46z m0 104q108 0 184-76t76-184-76-184-184-76-184 76-76 184 76 184 184 76z m0-676q-74 0-126-23t-73-54q75-29 199-29t198 29q-21 30-73 53t-124 23z m0 104q136 0 224-63t88-146q0-41-89-73t-223-31q-140 0-226 31t-86 73q0 83 86 146t226 63z" horiz-adv-x="625" />
<glyph glyph-name="user" unicode="&#xe113;" d="M313 793q108 0 184-76t76-184-76-184-184-76-184 76-76 184 76 184 184 76z m-313-781q0 83 86 146t226 63q136 0 224-63t88-146q0-41-89-73t-223-31q-140 0-226 31t-86 73z" horiz-adv-x="625" />
<glyph glyph-name="users-outline" unicode="&#xe07b;" d="M599 273q-108 0-184 76t-76 184 76 184 184 76 184-76 77-184-77-184-184-76z m0 416q-65 0-111-46t-46-111 46-111 111-46 111 46 46 111-46 111-111 46z m416-469q-55 0-93 38t-38 92 38 92 93 38 93-38 38-92-38-92-93-38z m0 209q-31 0-54-23t-23-56q0-31 23-54t55-23 56 23 23 54-23 55-56 24z m0-240q80 0 131-34t51-79q0-23-53-40t-130-18q-43 0-83 6 0-3 1-7t1-7q0-41-96-73t-239-31q-150 0-242 31t-92 73q0 3 1 8t1 8q-50-8-84-8-81 0-132 18t-51 40q0 45 50 79t133 34q99 0 151-50 99 81 265 81t265-81q53 50 151 50z m-833-118q60 0 103 11 5 8 13 18-38 38-115 38-98 0-126-49 44-18 126-18z m416-60q131 0 216 30-25 30-82 53t-134 23q-81 0-138-23t-80-53q84-30 218-30z m416 60q84 0 126 19-13 19-46 33t-81 14q-76 0-115-36 5-6 13-19 40-11 103-11z m-833 149q-55 0-93 38t-38 92 38 92 92 38 92-38 38-92-38-92-93-38z m0 209q-33 0-56-24t-23-55 23-54 56-23 55 23 23 54q0 33-23 56t-54 23z" horiz-adv-x="1198" />
<glyph glyph-name="users" unicode="&#xe07c;" d="M860 533q0-108-77-184t-184-76-184 76-76 184 76 184 184 76 184-76 77-184z m286-183q0-54-38-92t-93-38-93 38-38 92 38 92 93 38 93-38 38-92z m-131-161q80 0 131-34t51-79q0-23-53-40t-130-18q-43 0-83 6 0-3 1-7t1-7q0-41-96-73t-239-31q-150 0-242 31t-92 73q0 3 1 8t1 8q-50-8-84-8-81 0-132 18t-51 40q0 45 50 79t133 34q99 0 151-50 99 81 265 81t265-81q53 50 151 50z m-703 161q0-54-38-92t-93-38-93 38-38 92 38 92 93 38q54 0 92-38t38-92z" horiz-adv-x="1198" />
<glyph glyph-name="user-add-outline" unicode="&#xe10e;" d="M938 273h-313q-21 0-37 15t-16 36 16 37 37 16h313q21 0 37-16t16-37-16-36-37-15z m-156-156q-21 0-37 15t-16 36v313q0 21 16 37t37 16 37-16 16-37v-313q0-21-16-36t-37-15z m-469 573q-65 0-111-46t-46-111 46-111 111-46 111 46 46 111-46 111-111 46z m0 104q108 0 184-76t76-184-76-184-184-76-184 76-76 184 76 184 184 76z m0-676q-74 0-126-23t-73-54q75-29 199-29t198 29q-21 30-73 53t-124 23z m0 104q136 0 224-63t88-146q0-41-89-73t-223-31q-140 0-226 31t-86 73q0 83 86 146t226 63z" horiz-adv-x="990" />
<glyph glyph-name="user-add" unicode="&#xe10f;" d="M573 533q0-108-76-184t-184-76-184 76-76 184 76 184 184 76 184-76 76-184z m-260-625q-140 0-226 31t-86 73q0 83 86 146t226 63q136 0 224-63t88-146q0-41-89-73t-223-31z m625 469q21 0 37-16t16-37-16-36-37-15h-104v-105q0-21-16-36t-37-15-37 15-16 36v105h-104q-21 0-37 15t-16 36 16 37 37 16h104v104q0 21 16 37t37 16 37-16 16-37v-104h104z" horiz-adv-x="990" />
<glyph glyph-name="user-delete-outline" unicode="&#xe110;" d="M938 273h-313q-21 0-37 15t-16 36 16 37 37 16h313q21 0 37-16t16-37-16-36-37-15z m-625 416q-65 0-111-46t-46-111 46-111 111-46 111 46 46 111-46 111-111 46z m0 104q108 0 184-76t76-184-76-184-184-76-184 76-76 184 76 184 184 76z m0-676q-74 0-126-23t-73-54q75-29 199-29t198 29q-21 30-73 53t-124 23z m0 104q136 0 224-63t88-146q0-41-89-73t-223-31q-140 0-226 31t-86 73q0 83 86 146t226 63z" horiz-adv-x="990" />
<glyph glyph-name="user-delete" unicode="&#xe111;" d="M938 273h-313q-21 0-37 15t-16 36 16 37 37 16h313q21 0 37-16t16-37-16-36-37-15z m-625 520q108 0 184-76t76-184-76-184-184-76-184 76-76 184 76 184 184 76z m0-573q136 0 224-63t88-146q0-41-89-73t-223-31q-140 0-226 31t-86 73q0 83 86 146t226 63z" horiz-adv-x="990" />
<glyph glyph-name="video" unicode="&#xe06c;" d="M209 533h416v-365h-416v365z m364-313v260h-313v-260h313z m105 625q65 0 111-46t46-111v-678q0-65-46-111t-111-46h-156v104h-209v-104h-156q-65 0-111 46t-46 111v678q0 65 46 111t111 46h156v-105h209v105h156z m51-209v53q0 21-15 36t-36 15h-53v-104h-416v104h-53q-21 0-37-15t-16-36v-53q21 0 37-16t16-37-16-36-37-15v-53q21 0 37-16t16-37-16-36-37-15v-53q21 0 37-16t16-37-16-36-37-15v-53q21 0 37-16t16-37-16-36-37-15v-53q0-21 16-37t37-16h53v105h416v-105h53q21 0 36 16t15 37v53q-21 0-36 15t-15 36 15 37 36 16v53q-21 0-36 15t-15 36 15 37 36 16v53q-21 0-36 15t-15 36 15 37 36 16v53q-21 0-36 15t-15 36 15 37 36 16z" horiz-adv-x="834" />
<glyph glyph-name="videocam-outline" unicode="&#xe114;" d="M209 455q0 51 51 51 53 0 53-51 0-53-53-53-51 0-51 53z m520 313q60 0 104-40t51-96l89 29q25 9 47-8t22-41v-313q0-25-21-42t-48-8l-89 30q-8-56-51-96t-104-40h-104v-54q0-63-46-109t-110-46-107 43-49 107v59h-156q-64 0-110 46t-46 110v313q0 64 46 110t110 46h573z m-260-730q20 0 36 16t16 36v105h-105v-105q3-21 17-36t36-15z m260 209q23 0 38 15t15 38v313q0 21-16 36t-37 15h-573q-21 0-37-15t-16-36v-313q0-21 16-37t37-16h573z m209 125v168l-104-31v-105q6 0 104-31z" horiz-adv-x="1041" />
<glyph glyph-name="videocam" unicode="&#xe115;" d="M1041 610q23 0 38-15t15-36v-418q0-21-15-36t-38-15q-13 0-23 5l-134 66v-20q0-65-46-111t-111-46h-573q-65 0-111 46t-46 111v418q0 65 46 111t111 46h573q65 0 111-46t46-111v-20l134 66q10 5 23 5z m-781-338q33 0 56 23t23 55-23 55-56 23-55-23-23-55 23-55 55-23z" horiz-adv-x="1094" />
<glyph glyph-name="picture-outline" unicode="&#xe082;" d="M339 559q-31 0-55-23t-24-56q0-31 23-54t56-23q31 0 54 23t23 55-23 56-54 23z m0 51q54 0 92-38t38-93-38-93-92-38-92 38-38 93 38 93 92 38z m156-416q-49 0-94 26t-89 26q-40 0-84-105h593q-19 85-46 146t-46 63q-34 0-96-70-25-28-41-42t-43-29-54-15z m234 209q46 0 85-78t55-157l16-78h-729q3 9 6 23t19 49 31 63 44 50 56 23q55 0 101-26t81-26q25 0 54 24t53 54 58 54 69 24z m313 260v-625q0-43-31-73t-73-31h-834q-44 0-74 31t-30 73v625q0 43 30 73t74 31h834q43 0 73-31t31-73z m-104-625v625h-834v-625h834z" horiz-adv-x="1041" />
<glyph glyph-name="picture" unicode="&#xe083;" d="M209 481q0 130 130 130t130-130-130-130-130 130z m520-79q41 0 78-61 51-93 79-251h-729l16 53q18 54 56 105t84 51q54 0 126-39 25-14 56-14 38 0 86 55 58 65 91 85 28 16 56 16z m-729 261q0 43 30 73t74 31h834q43 0 73-31t31-73v-625q0-44-31-74t-73-31h-834q-43 0-73 31t-31 74v625z m938-625v625h-834v-625h834z" horiz-adv-x="1041" />
<glyph glyph-name="camera-outline" unicode="&#xe037;" d="M885-66h-729q-65 0-111 46t-46 111v416q0 65 46 111t111 46h83l53 53q23 23 58 37t68 14h209q33 0 68-14t58-37l51-53h83q65 0 111-46t46-111v-416q0-65-46-111t-111-46z m-729 625q-21 0-37-16t-16-37v-416q0-21 16-37t37-16h729q21 0 37 16t16 37v416q0 21-16 37t-37 16h-104q-21 0-36 15l-68 68q-21 21-53 21h-209q-30 0-51-21l-68-68q-15-15-38-15h-104z m365-105q-54 0-93-38t-39-92 39-92 93-38 92 38 38 92-38 92-92 38z m0 53q76 0 129-53t53-129q0-75-53-129t-128-54q-76 0-129 54t-53 129q0 76 53 129t129 53z m313 16q28 0 48-20t20-49-19-48-48-19-49 20-20 48q0 29 20 49t49 20z" horiz-adv-x="1041" />
<glyph glyph-name="camera" unicode="&#xe038;" d="M885 663q65 0 111-46t46-111v-416q0-65-46-111t-111-46h-729q-65 0-111 46t-46 111v416q0 65 46 111t111 46h83l53 53q23 23 58 37t68 14h209q33 0 68-14t58-37l51-53h83z m-364-521q75 0 128 54t53 129q0 76-53 129t-129 53-129-53-53-129q0-75 53-129t129-54z m313 245q29 0 48 19t19 48-20 49-48 20q-29 0-49-20t-20-49q0-28 20-48t49-20z" horiz-adv-x="1041" />
<glyph glyph-name="th-outline" unicode="&#xe0ff;" d="M209 142q44 0 74-31t30-73v-104q0-44-31-74t-73-31h-105q-43 0-73 31t-31 74v104q0 43 30 73t74 31h105z m0-208v104h-105v-104h105z m0 573q44 0 74-31t30-73v-105q0-43-30-73t-74-31h-105q-44 0-74 31t-30 73v105q0 43 30 73t74 31h105z m0-209v105h-105v-105h105z m0 574q43 0 73-31t31-74v-104q0-43-30-73t-74-31h-105q-44 0-74 31t-30 73v104q0 44 31 74t73 31h105z m0-209v104h-105v-104h105z m364-521q44 0 74-31t31-73v-104q0-44-31-74t-74-31h-104q-43 0-73 31t-31 74v104q0 43 30 73t74 31h104z m0-208v104h-104v-104h104z m0 573q44 0 74-31t31-73v-105q0-43-31-73t-74-31h-104q-44 0-74 31t-30 73v105q0 43 30 73t74 31h104z m0-209v105h-104v-105h104z m0 574q43 0 74-31t31-74v-104q0-43-31-73t-74-31h-104q-44 0-74 31t-30 73v104q0 44 31 74t73 31h104z m0-209v104h-104v-104h104z m365-521q43 0 73-31t31-73v-104q0-44-31-74t-73-31h-104q-44 0-74 31t-31 74v104q0 43 31 73t74 31h104z m0-208v104h-104v-104h104z m0 573q43 0 73-31t31-73v-105q0-43-31-73t-73-31h-104q-44 0-74 31t-31 73v105q0 43 31 73t74 31h104z m0-209v105h-104v-105h104z m0 574q43 0 73-31t31-74v-104q0-43-31-73t-73-31h-104q-44 0-74 31t-31 73v104q0 44 31 74t74 31h104z m0-209v104h-104v-104h104z" horiz-adv-x="1041" />
<glyph glyph-name="th" unicode="&#xe100;" d="M0-15q0 130 130 130t130-130-130-130-130 130z m0 365q0 130 130 130t130-130-130-130-130 130z m0 365q0 130 130 130t130-130-130-130-130 130z m365-730q0 130 130 130t130-130-130-130-130 130z m0 365q0 130 130 130t130-130-130-130-130 130z m0 365q0 130 130 130t130-130-130-130-130 130z m364-730q0 130 131 130 130 0 130-130t-130-130q-131 0-131 130z m0 365q0 130 131 130 130 0 130-130t-130-130q-131 0-131 130z m0 365q0 130 131 130 130 0 130-130t-130-130q-131 0-131 130z" horiz-adv-x="990" />
<glyph glyph-name="th-large-outline" unicode="&#xe0f9;" d="M365 872q43 0 73-31t31-74v-260q0-44-31-74t-73-30h-261q-44 0-74 30t-30 74v260q0 44 31 74t73 31h261z m0-365v260h-261v-260h261z m573 365q43 0 73-31t31-74v-260q0-44-31-74t-73-30h-260q-44 0-74 31t-31 73v260q0 44 31 74t74 31h260z m0-365v260h-260v-260h260z m-573-209q43 0 73-30t31-74v-260q0-44-31-74t-73-31h-261q-43 0-73 31t-31 74v260q0 44 30 74t74 30h261z m0-364v260h-261v-260h261z m573 364q43 0 73-30t31-74v-260q0-44-31-74t-73-31h-260q-43 0-74 31t-31 74v260q0 43 31 73t74 31h260z m0-364v260h-260v-260h260z" horiz-adv-x="1041" />
<glyph glyph-name="th-large" unicode="&#xe0fa;" d="M0 663q0 65 46 111t111 46h104q65 0 111-46t46-111v-104q0-65-46-111t-111-46h-104q-65 0-111 46t-46 111v104z m521 0q0 65 46 111t111 46h104q65 0 111-46t46-111v-104q0-65-46-111t-111-46h-104q-65 0-111 46t-46 111v104z m-521-521q0 65 46 111t111 46h104q65 0 111-46t46-111v-104q0-65-46-111t-111-46h-104q-65 0-111 46t-46 111v104z m521 0q0 65 46 111t111 46h104q65 0 111-46t46-111v-104q0-65-46-111t-111-46h-104q-65 0-111 46t-46 111v104z" horiz-adv-x="938" />
<glyph glyph-name="th-list-outline" unicode="&#xe0fb;" d="M885 38h-364q-21 0-37-16t-16-37 16-36 37-15h364q21 0 37 15t16 36-16 37-37 16z m0 104q65 0 111-46t46-111-46-111-111-46h-364q-65 0-111 46t-46 111 46 111 111 46h364z m0 261h-364q-21 0-37-16t-16-37 16-37 37-16h364q21 0 37 16t16 37-16 37-37 16z m0 104q65 0 111-46t46-111-46-111-111-46h-364q-65 0-111 46t-46 111 46 111 111 46h364z m0 260h-364q-21 0-37-15t-16-36 16-37 37-16h364q21 0 37 16t16 37-16 36-37 15z m0 105q65 0 111-46t46-111-46-111-111-46h-364q-65 0-111 46t-46 111 46 111 111 46h364z m-676-730q44 0 74-31t30-73v-104q0-44-31-74t-73-31h-105q-43 0-73 31t-31 74v104q0 43 30 73t74 31h105z m0-208v104h-105v-104h105z m0 573q44 0 74-31t30-73v-105q0-43-30-73t-74-31h-105q-44 0-74 31t-30 73v105q0 43 30 73t74 31h105z m0-209v105h-105v-105h105z m0 574q43 0 73-31t31-74v-104q0-43-30-73t-74-31h-105q-44 0-74 31t-30 73v104q0 44 31 74t73 31h105z m0-209v104h-105v-104h105z" horiz-adv-x="1041" />
<glyph glyph-name="th-list" unicode="&#xe0fc;" d="M860 90q43 0 73-31t31-74q0-43-31-73t-73-31h-365q-44 0-74 31t-31 73 31 74 74 31h365z m0 364q43 0 73-31t31-73-31-73-73-31h-365q-44 0-74 31t-31 73 31 73 74 31h365z m0 365q43 0 73-31t31-73q0-44-31-74t-73-31h-365q-43 0-74 31t-31 74 31 73 74 31h365z m-860-834q0 130 130 130t130-130-130-130-130 130z m0 365q0 130 130 130t130-130-130-130-130 130z m0 365q0 130 130 130t130-130-130-130-130 130z" horiz-adv-x="964" />
<glyph glyph-name="ok-outline" unicode="&#xe104;" d="M365-41q-66 0-111 45l-208 209q-46 46-46 110 0 65 46 111 44 44 110 44t110-44l63-63 160 288q20 38 57 59t79 22q88 0 134-76t2-157l-260-469q-44-80-136-80z m-209 416q-21 0-37-16t-16-37q0-20 16-36l208-209q19-19 44-15t38 26l260 469q11 23 4 43t-24 29q-19 10-39 4t-31-24l-228-409-160 160q-15 15-36 15z" horiz-adv-x="783" />
<glyph glyph-name="ok" unicode="&#xe105;" d="M625 676q38-20 49-63t-9-80l-260-469q-30-54-91-54-43 0-74 31l-209 208q-31 31-31 74t31 74 74 31 74-31l111-110 193 348q20 38 63 50t80-9z" horiz-adv-x="679" />
<glyph glyph-name="cancel-outline" unicode="&#xe108;" d="M729 143q0-64-46-110t-110-46-110 46l-98 98-99-98q-44-44-110-44t-110 44q-46 46-46 110 0 65 46 111l98 98-98 98q-46 46-46 111 0 64 46 110 44 44 110 44t110-44l99-98 98 98q44 44 111 44t111-44q45-45 45-110 0-66-45-111l-99-98 99-98q45-45 45-111z m-364 135l171-171q15-15 37-15t37 15 15 36q0 23-15 38l-171 171 171 171q15 15 15 38 0 21-15 36t-37 15-37-15l-171-171-173 171q-15 15-36 15t-36-15q-16-16-16-36 0-21 16-38l171-171-171-171q-16-16-16-38 0-20 16-36 15-15 36-15t36 15z" horiz-adv-x="729" />
<glyph glyph-name="cancel" unicode="&#xe109;" d="M596 632q31-31 31-74t-31-74l-135-135 135-135q31-31 31-74t-31-74q-30-30-74-30t-74 30l-135 135-135-135q-30-30-74-30t-74 30q-31 31-31 74t31 74l135 135-135 135q-31 31-31 74t31 74q30 31 74 31t74-31l135-135 135 135q30 31 74 31t74-31z" horiz-adv-x="628" />
<glyph glyph-name="cancel-alt" unicode="&#xe025;" d="M936-67h-521q-56 0-116 30t-92 76l-136 191q-14 19-29 41t-24 33-8 12q-10 14-10 33t9 33q5 5 64 88l135 190q33 46 92 77t116 31h521q65 0 111-46t46-111v-521q0-65-46-111t-111-46z m-821 416q6-9 21-29t21-28l136-191q18-25 55-44t68-19h521q21 0 36 16t15 37v521q0 21-15 36t-36 15h-521q-30 0-68-19t-55-44l-135-190q-8-10-22-31t-21-29z m545 0l139-138q13-13 5-29t-24-16q-10 0-19 9l-138 138-138-138q-9-9-19-9-16 0-24 16t5 29l138 138-138 139q-11 11-6 25t18 18 26-6l138-138 138 138q18 18 36-1t1-36z" horiz-adv-x="1093" />
<glyph glyph-name="cancel-alt-filled" unicode="&#xe026;" d="M911 741q54 0 92-38t38-92v-521q0-54-38-92t-92-38h-521q-50 0-103 28t-82 68l-138 191q-59 84-61 86-13 18 0 35l8 11q9 13 24 34t31 42l135 190q29 40 83 68t104 28h521z m-120-510l-119 119 119 120q15 15 15 37t-15 37-37 15-37-15l-119-120-120 120q-15 15-37 15t-37-15-15-37 15-37l120-120-120-119q-15-15-15-37t15-37q16-16 38-16 20 0 36 16l120 119 119-119q16-16 38-16 20 0 36 16 15 15 15 37t-15 37z" horiz-adv-x="1041" />
<glyph glyph-name="cancel-circled-outline" unicode="&#xe053;" d="M469 819q194 0 331-138t138-331-138-331-331-138-331 138-138 331 138 331 331 138z m0-834q151 0 258 107t107 258-107 258-258 107-258-107-107-258 107-258 258-107z m36 365l139-138q13-13 5-29t-24-16q-11 0-19 8l-138 139-138-139q-8-8-19-8-16 0-24 16t5 29l139 138-139 138q-18 18 1 36t36 1l138-139 138 139q18 18 36-1t1-36z" horiz-adv-x="938" />
<glyph glyph-name="cancel-circled" unicode="&#xe054;" d="M416 767q173 0 295-122t123-294-123-294-295-122-294 122-122 294 122 294 294 122z m194-536l-120 120 120 120q15 15 15 36t-15 36-37 15-37-15l-120-119-119 119q-15 15-37 15t-37-15-15-36 15-36l119-120-119-120q-15-15-15-36t15-36q16-16 36-16 21 0 38 16l119 119 120-119q16-16 36-16 21 0 38 16 15 15 15 36t-15 36z" horiz-adv-x="834" />
<glyph glyph-name="plus-outline" unicode="&#xe0c0;" d="M469-119q-65 0-111 46t-46 111l3 159-158-3q-65 0-111 46t-46 111 46 111 111 46l159 3-3 153q0 65 46 111t111 46 111-46 46-111l3-154 155-3q64 0 109-46t46-111-46-111-111-46l-154 3-3-160q0-64-46-109t-111-46z m-53 416v-261q0-21 16-36t37-15 37 16 16 37v260h261q21 0 36 16t15 37-16 37-37 16h-260v260q0 23-16 38t-37 15-37-16-16-37v-260h-260q-23 0-38-16t-15-37 16-37 37-16h260z" horiz-adv-x="938" />
<glyph glyph-name="plus" unicode="&#xe0c1;" d="M729 454q44 0 74-31t31-73-31-73-74-31l-208 4v-213q0-43-31-73t-74-31-74 31-30 73l4 213-213-4q-44 0-74 31t-30 73 30 73 74 31h213l-4 209q0 43 30 73t74 31 74-31 31-73v-209h208z" horiz-adv-x="834" />
<glyph glyph-name="minus-outline" unicode="&#xe0af;" d="M781 194h-625q-65 0-111 46t-46 111 46 111 111 46h625q65 0 111-46t46-111-46-111-111-46z m-625 209q-21 0-37-16t-16-37 16-36 37-15h625q21 0 37 15t16 36-16 37-37 16h-625z" horiz-adv-x="938" />
<glyph glyph-name="minus" unicode="&#xe0b0;" d="M729 455q44 0 74-31t31-74-31-73-74-31h-625q-44 0-74 31t-30 73q0 44 31 74t73 31h625z" horiz-adv-x="834" />
<glyph glyph-name="divide-outline" unicode="&#xe05a;" d="M469 533q-65 0-111 46t-46 111 46 111 111 46 111-46 46-111-46-111-111-46z m0 208q-21 0-37-15t-16-36 16-37 37-16 37 16 16 37-16 36-37 15z m0-885q-65 0-111 46t-46 111 46 111 111 46 111-46 46-111-46-111-111-46z m0 209q-21 0-37-16t-16-37 16-36 37-15 37 15 16 36-16 37-37 16z m313 130h-625q-65 0-111 46t-46 111 46 111 111 46h625q65 0 111-46t46-111-46-111-111-46z m-625 209q-21 0-37-16t-16-37 16-37 37-16h625q21 0 37 16t16 37-16 37-37 16h-625z" horiz-adv-x="938" />
<glyph glyph-name="divide" unicode="&#xe05b;" d="M300 663q0 118 116 118 118 0 118-118t-118-118q-116 0-116 118z m0-625q0 118 116 118 118 0 118-118t-118-118q-116 0-116 118z m-300 313q0 43 30 73t74 31h625q44 0 74-31t31-73-31-73-74-31h-625q-44 0-74 31t-30 73z" horiz-adv-x="834" />
<glyph glyph-name="eq-outline" unicode="&#xe065;" d="M781 377h-625q-65 0-111 46t-46 111 46 111 111 46h625q65 0 111-46t46-111-46-111-111-46z m-625 209q-21 0-37-16t-16-37 16-37 37-16h625q21 0 37 16t16 37-16 37-37 16h-625z m625-574h-625q-65 0-111 46t-46 111 46 111 111 46h625q65 0 111-46t46-111-46-111-111-46z m-625 209q-21 0-37-16t-16-37 16-36 37-15h625q21 0 37 15t16 36-16 37-37 16h-625z" horiz-adv-x="938" />
<glyph glyph-name="eq" unicode="&#xe066;" d="M729 637q44 0 74-31t31-73-31-73-74-31h-625q-44 0-74 30t-30 74 30 74 74 30h625z m0-364q44 0 74-31t31-74q0-43-31-73t-74-31h-625q-44 0-74 30t-30 74 31 74 73 31h625z" horiz-adv-x="834" />
<glyph glyph-name="info-outline" unicode="&#xe086;" d="M429 115q50-6 78-51 19-31 13-69t-34-61q-93-79-215-79-160 0-220 123-53 109 13 238l30 58q-51 6-79 51-19 31-13 69t34 61q64 54 154 71-33 53-33 111 0 86 61 148t148 61 147-61 61-148q0-63-34-114t-91-77q40-53 44-123t-34-149z m-64 625q-44 0-74-31t-31-73 31-73 74-31q43 0 73 31t31 73-31 73-73 31z m-95-781q39 0 76 13t54 27l16 13q-33-11-63-11-46 0-56 33t15 82l53 104q44 91 10 150t-124 59q-39 0-76-13t-54-26l-18-13q34 11 64 11 46 0 56-34t-15-81l-53-104q-44-91-10-151t124-59z" horiz-adv-x="573" />
<glyph glyph-name="info" unicode="&#xe087;" d="M331 37q19 6 31-12t-4-33q-5-5-22-16t-59-26-84-15q-109 0-149 79-35 74 13 168l53 104q28 55 3 73-5 5-21 5-11 0-24-3t-22-5l-8-3q-19-6-31 11t4 33q6 6 22 17t58 26 84 16q111 0 150-79 35-74-13-168l-53-104q-28-56-3-74 4-4 21-4 11 0 24 3t22 5z m-174 600q0 130 130 130t130-130-130-130-130 130z" horiz-adv-x="417" />
<glyph glyph-name="home-outline" unicode="&#xe080;" d="M1108 422q39-30 39-80 0-43-31-73t-74-31h-51v-313q0-44-31-74t-74-31h-625q-43 0-73 31t-31 74v313h-53q-44 0-74 31t-30 73q0 46 36 79 79 66 204 174t211 181 88 75l34 29 35-29q1-1 87-75t211-181 203-173z m-430-496v260h-209v-260h209z m208 416h156q-231 194-469 400-238-206-469-400h156v-416h156v313h313v-313h156v416z" horiz-adv-x="1146" />
<glyph glyph-name="home" unicode="&#xe081;" d="M521 819q321-279 500-429 20-16 20-40 0-21-15-37t-36-16h-105v-364q0-21-15-37t-36-16h-156q-21 0-37 16t-16 37v208h-209v-208q0-21-15-37t-36-16h-156q-21 0-37 16t-16 37v364h-104q-21 0-37 16t-16 37 19 40z" horiz-adv-x="1041" />
<glyph glyph-name="link-outline" unicode="&#xe090;" d="M786 720q-24 0-40-16l-90-90-16 16q-45 45-114 45t-114-45l-218-218q-48-48-48-115 0-66 48-114l15-16-89-89q-16-16-16-40t16-41q18-18 40-18 24 0 41 18l89 90 16-16q48-48 115-48 66 0 114 48l218 218q46 46 46 114t-46 114l-16 16 90 90q18 18 18 41t-18 40q-16 16-41 16z m-625-844q-66 0-114 48t-48 113q0 68 48 115l25 25q-29 58-29 120 0 111 78 189l218 218q76 76 188 76 65 0 120-29l26 26q46 46 114 46 66 0 114-48t48-113q0-69-48-114l-25-25q30-60 30-121 0-109-79-188l-216-218q-78-78-189-78-64 0-121 29l-25-25q-48-48-114-48z m414 469q-43 1-74 33t-33 74l-95-96q43-1 73-32t32-73z m-49 218q19 0 33-14l16-16-38-38q-18-18-18-41t18-40q16-16 40-16 25 0 41 16l38 38 16-16q14-14 14-33 0-20-14-34l-218-216q-14-14-33-14-20 0-34 14l-16 15 38 38q18 18 18 41t-18 40q-18 18-40 18-24 0-41-18l-38-38-16 16q-13 13-13 33 0 21 13 34l218 218q14 14 34 14z" horiz-adv-x="948" />
<glyph glyph-name="link" unicode="&#xe091;" d="M723 704q18-16 18-40t-18-41l-89-90 15-16q48-48 48-114t-48-114l-216-218q-48-48-115-48-66 0-114 48l-16 16-90-90q-18-18-40-18-24 0-41 18-16 18-16 41t16 40l90 89-16 16q-46 46-46 115 0 68 46 114l218 218q46 46 114 46t114-46l16-16 89 90q16 16 40 16t41-16z m-154-335q13 13 13 34 0 20-13 33l-16 16-38-38q-16-16-41-16-24 0-40 16t-16 40 16 41l38 38-16 16q-14 14-33 14-20 0-34-14l-218-218q-14-14-14-33 0-20 14-34l16-16 38 38q18 18 41 18t40-18q16-16 16-40t-16-41l-38-38 16-15q14-14 33-14 20 0 34 14z" horiz-adv-x="740" />
<glyph glyph-name="attach-outline" unicode="&#xe023;" d="M389 328q-11 0-18 8t-7 17q0 11 8 19l236 236q31 31 73 31 44 0 75-31 30-30 30-74t-30-74q-61-61-184-184t-184-184q-31-31-74-31t-74 31q-30 30-30 74t30 74l5 5q-36 48-36 110l-43-41q-61-61-61-148t61-148 148-61 148 61l368 369q61 61 61 147t-61 147-148 61q-85 0-146-61l-236-236q-39-39-39-91 0-54 39-93t91-39q54 0 93 39l111 110q30 30 30 74 0 43-31 74l-184-184q-8-8-19-8z m291 519q130 0 221-91t91-221q0-129-91-220l-368-369q-91-91-221-91t-221 91-91 221q0 129 91 220l369 369q91 91 220 91z" horiz-adv-x="993" />
<glyph glyph-name="attach" unicode="&#xe024;" d="M285 223q-53 0-91 38t-39 92q0 55 38 93l236 236q61 61 148 61t148-61 61-148-61-148l-369-369q-61-61-146-61-86 0-148 61t-61 148 61 148l41 41q0-61 38-110l-5-5q-30-30-30-74t30-74 74-30 74 30q61 61 184 184t184 184q30 30 30 74t-30 74q-31 30-74 30t-73-30l-236-236q-8-8-8-19t8-19 19-8 19 8l184 184q31-31 31-74 0-41-31-73l-110-111q-38-38-93-38z" horiz-adv-x="785" />
<glyph glyph-name="lock" unicode="&#xe096;" d="M298 116q0 68 68 68t68-68-68-68-68 68z m68 676q85 0 146-61t61-146v-105h53q43 0 73-31t31-73v-365q0-43-31-73t-73-31h-521q-44 0-74 31t-30 73v365q0 43 30 73t74 31h53v105q0 60 29 107t74 73q48 28 105 28z m0-104q-44 0-74-31t-31-73v-156h209v156q0 44-31 74t-73 30z m260-678v365h-521v-365h521z" horiz-adv-x="729" />
<glyph glyph-name="lock-filled" unicode="&#xe097;" d="M625 480q43 0 73-31t31-73v-365q0-43-31-73t-73-31h-521q-44 0-74 31t-30 73v365q0 43 30 73t74 31h53v105q0 86 61 147t148 61 147-61 61-147v-105h53z m-260-431q28 0 48 20t20 48-20 48-48 20-48-20-20-48 20-48 48-20z m104 380v156q0 44-31 74t-73 30q-44 0-74-31t-31-73v-156h209z" horiz-adv-x="729" />
<glyph glyph-name="lock-open" unicode="&#xe098;" d="M298 116q0 68 68 68t68-68-68-68-68 68z m-298 260q0 43 30 73t74 31h156v-51h209v156q0 69 36 118t92 73q38 16 81 16 85 0 146-61t61-146v-156q0-21-15-37t-36-16-37 16-16 37v156q0 44-31 74t-73 30q-44 0-74-31t-31-73v-105h53q43 0 73-31t31-73v-365q0-43-31-73t-73-31h-521q-44 0-74 31t-30 73v365z m625-365v365h-521v-365h521z" horiz-adv-x="885" />
<glyph glyph-name="lock-open-filled" unicode="&#xe099;" d="M678 793q86 0 147-61t61-147v-156q0-21-15-37t-36-16-37 16-16 37v156q0 44-31 74t-73 30q-44 0-74-31t-31-73v-105h53q43 0 73-31t31-73v-365q0-43-31-73t-73-31h-521q-44 0-74 31t-30 73v365q0 43 30 73t74 31h156v-51h209v156q0 86 61 147t148 61z m-313-744q28 0 48 20t20 48-20 48-48 20-48-20-20-48 20-48 48-20z" horiz-adv-x="885" />
<glyph glyph-name="pin-outline" unicode="&#xe0ba;" d="M856 554q30-30 30-73t-30-74q-16-16-36-24-106-51-144-125-51-103-51-246 0-45-29-74t-74-29q-48 0-75 30l-168 169-279-199 199 279-169 168q-20 19-27 49t4 64q28 65 96 65 146 0 246 50l11 6q69 38 118 141 8 20 21 34 30 30 74 29t73-31z m-274-250q54 108 196 175l-205 211q-69-146-176-200l-13-6q-120-56-281-56l416-416q0 168 63 293z" horiz-adv-x="886" />
<glyph glyph-name="pin" unicode="&#xe0bb;" d="M573 37q0-23-14-38t-37-15q-21 0-38 16l-169 169-315-236 236 315-169 169q-24 24-11 56 14 33 48 33 158 0 270 56 90 45 151 171 9 24 36 32t50-13l208-209q21-23 14-50t-31-36q-128-63-173-151-56-110-56-269z" horiz-adv-x="834" />
<glyph glyph-name="eye-outline" unicode="&#xe069;" d="M469 559q-98 0-171-53-78-55-165-156 85-99 165-155 74-53 171-53t171 53q80 56 165 155-88 101-165 156-74 53-171 53z m0 104q133 0 231-71 60-43 119-103t88-99l30-39q-11-16-32-43t-83-91-123-107q-99-71-231-71-134 0-233 71-60 43-119 103t-88 99l-29 39q11 16 32 43t83 91 122 107q99 71 233 71z m0-260q21 0 37-16t16-37-16-36-37-15-37 15-16 36 16 37 37 16z m0-209q-65 0-111 46t-46 111 46 111 111 46 111-46 46-111-46-111-111-46z m0 261q-43 0-73-31t-31-74q0-43 30-73t74-31 74 31 30 73q0 44-31 74t-73 31z" horiz-adv-x="938" />
<glyph glyph-name="eye" unicode="&#xe06a;" d="M1034 380q21-29 0-59-8-11-34-46t-89-99-126-109q-113-80-261-80-150 0-263 80-64 45-126 109t-89 99-34 46q-21 29 0 59 6 11 34 46t90 99 126 109q114 81 263 81 148 0 261-81 64-45 126-109t90-99 34-46z m-511-213q75 0 128 54t53 129q0 76-53 129t-128 53q-76 0-129-53t-53-129q0-75 53-129t129-54z m104 183q0-43-30-73t-74-31-74 31-31 73 31 74 74 31q43 0 73-31t31-74z" horiz-adv-x="1045" />
<glyph glyph-name="tag" unicode="&#xe0f7;" d="M365 792q-109 0-185-76t-76-184 76-184l159-155 286-286 365 365q-369 369-441 444-76 76-184 76z m0 105q151 0 259-108 109-113 440-444 30-31 30-74t-30-74l-365-365q-30-30-74-30t-74 30l-270 270q-9 6-19 15l-156 156q-106 106-106 258t106 258q108 108 259 108z m0-286q-33 0-56-23t-23-56 23-55 56-23 55 23 23 55-23 56-55 23z m0 51q54 0 92-38t38-92-38-92-92-38-92 38-38 92 38 92 92 38z" horiz-adv-x="1094" />
<glyph glyph-name="tags" unicode="&#xe0f8;" d="M1011 502q30-31 30-74t-30-73l-56-56 5-5q30-31 29-74t-31-73l-364-365q-30-30-74-30t-74 30q-226 226-341 338-106 106-106 258 0 103 54 189-8 165 105 278 106 106 258 106 153 0 259-106z m-490-646l364 365-336 340q-76 76-184 76-109 0-185-76t-76-184 76-184q115-111 341-338z m101 779l259-261 56 56-336 340q-76 76-185 76-108 0-184-76-35-35-54-79 86 51 186 51 150 0 258-108z m-258-179q-33 0-56-23t-23-56 23-55 56-23 55 23 23 55-23 56-55 23z m0 51q54 0 92-38t38-92-38-92-92-38-92 38-38 92 38 92 92 38z" horiz-adv-x="1041" />
<glyph glyph-name="bookmark" unicode="&#x1f516;" d="M573 846q65 0 111-46t46-111v-730q0-51-24-78t-58-27q-43 0-80 38l-165 166q-15 15-37 15t-37-15l-165-166q-40-39-82-38t-64 39q-16 29-16 66v730q0 65 46 111t111 46h416z m-416-105q-21 0-37-15t-16-36v-516l128 118q55 51 133 51t133-51l128-118v516q0 21-16 36t-37 15h-416z m319-609l150-150v120l-163 150q-40 36-98 36t-98-36l-164-150v-120l150 150q45 45 111 45 65 0 110-45z" horiz-adv-x="729" />
<glyph glyph-name="flag" unicode="&#xe06d;" d="M640 693q25 25 57 11t32-47v-418q0-21-15-36-80-80-193-80t-193 80q-46 46-110 50t-114-36v-238q0-21-15-37t-36-16-37 16-16 37v678q0 21 15 36 80 80 193 80t193-80q50-50 119-50t119 50z m-313-74q-46 46-110 50t-114-36v-119q68 33 146 20t133-68q49-49 118-56t125 29v121q-73-31-156-16t-142 74z m74-343q46-46 110-50t114 36v119q-54-25-104-25-100 0-175 73-49 49-118 56t-125-29v-120q53 21 105 21 113 0 193-80z" horiz-adv-x="729" />
<glyph glyph-name="flag-filled" unicode="&#xe06e;" d="M640 693q25 25 57 11t32-47v-418q0-21-15-36-80-80-193-80t-193 80q-46 46-110 50t-114-36v-238q0-21-15-37t-36-16-37 16-16 37v678q0 21 15 36 80 80 193 80t193-80q50-50 119-50t119 50z" horiz-adv-x="729" />
<glyph glyph-name="thumbs-up" unicode="&#x1f44d;" d="M811 470q38-14 58-51t14-78l-35-311q-6-39-32-70t-58-44q-5-1-26-9t-29-11-29-8-45-6-57-1q-83 0-174 26t-130 56q-1 1-3 3t-4 4-3 4q-46-40-103-40-65 0-111 46t-46 111v313q0 65 46 111t111 46q76 0 124-63 44 44 64 84t21 108q0 54 38 93t92 39 92-39 38-93q0-94-16-188 170-18 203-30z m-655-433q21 0 37 15t16 36v313q0 21-16 37t-37 16-37-16-16-37v-313q0-21 16-36t37-15z m590 8l35 311q3 13-6 16-15 4-108 15t-119 14l-69-10 16 74q25 116 25 223 0 10-8 18t-18 8-18-8-8-18q0-54-11-98t-33-78-36-51-41-43q-36-36-36-69v-260q0-30 19-44 24-18 99-39t143-21q26 0 46 1t35 4 23 6 23 9 23 9q6 3 14 13t9 19z" horiz-adv-x="885" />
<glyph glyph-name="thumbs-down" unicode="&#x1f44e;" d="M729 768q65 0 111-46t46-111v-313q0-65-46-111t-111-46q-76 0-124 63-43-43-63-84t-21-109q0-54-38-92t-92-38-93 38-39 92q0 95 16 189-174 19-201 29-38 14-59 52t-15 78l35 311q6 38 32 69t58 44q5 1 26 9t29 11 29 8 45 6 57 1q83 0 174-26t131-56q3-1 5-5t4-5q46 40 103 40z m-313-755q0 54 11 98t33 78 36 51 41 43q36 36 36 69v260q0 11-6 25t-13 19q-24 18-99 39t-143 21q-26 0-46-1t-35-4-23-6-23-9-23-9q-6-3-14-13t-9-19l-34-311q-3-13 5-16 15-4 108-15t119-14l69 10-15-74q-25-123-25-223 0-10 8-18t18-8 18 8 8 18z m365 286v313q0 21-16 36t-37 15-36-15-15-36v-313q0-21 15-37t36-16 37 16 16 37z" horiz-adv-x="885" />
<glyph glyph-name="download-outline" unicode="&#xe060;" d="M936 64l1-261q0-21-16-36t-37-15h-833q-21 0-37 15t-16 36q0 261 1 261 0 11 1 16l105 313q13 35 49 35h29l-35 36q-46 46-46 110t46 110q31 31 76 41t86-4v71q0 65 46 111t111 46 111-46 46-111v-71q41 14 86 4t76-41q46-46 46-110t-46-110l-35-36h29q36 0 49-35l105-313q1-5 1-16z m-713 546q-15-15-15-37t15-37l245-244 245 245q15 15 15 36t-15 36-37 15-37-15l-119-119v301q0 21-16 37t-37 16-37-16-16-37v-301l-119 119q-16 16-38 16-20 0-36-16z m-30-286l-86-260h724l-88 260h-96l-179-178-179 178h-96z m640-469v156h-730v-156h730z" horiz-adv-x="938" />
<glyph glyph-name="download" unicode="&#x1f4e5;" d="M714 590q15-15 15-37t-15-37l-245-244-245 244q-15 15-15 37t15 37 36 15q23 0 38-15l119-120v349q0 21 16 37t37 16 37-16 16-37v-349l119 120q14 14 38 14 23 0 36-14z m223-449l1-260q0-21-16-37t-37-16h-833q-21 0-37 16t-16 37q0 260 1 260 0 11 1 16l105 313q13 36 49 36h11q9-18 19-28l78-76h-70l-86-261h723l-86 261h-70l78 76q10 10 19 28h11q36 0 49-36l105-313q1-5 1-16z" horiz-adv-x="938" />
<glyph glyph-name="upload-outline" unicode="&#xe10c;" d="M936 65l1-261q0-21-16-36t-37-15h-833q-21 0-37 15t-16 36v261q0 6 3 16l104 313q8 21 30 31-35 46-31 104t45 99l319 319 319-319q41-41 45-99t-31-104q21-10 29-31l105-313q1-5 1-16z m-713 490q-15-15-15-37t15-37 37-15 37 15l119 119v-301q0-21 16-36t37-15 37 15 16 36v301l119-119q15-15 37-15t37 15 15 37-15 37l-245 245z m-30-230l-86-260h723l-86 260h-119v-26q0-65-46-111t-111-46-111 46-46 111v26h-119z m-90-469h730v156h-730v-156z" horiz-adv-x="938" />
<glyph glyph-name="upload" unicode="&#xe10d;" d="M936 128l1-260q0-21-16-37t-37-16h-833q-21 0-37 16t-16 37q0 260 1 260 0 11 1 16l105 313q13 36 49 36h209v-104h-171l-86-261h723l-86 261h-171v104h209q36 0 49-36l105-313q1-5 1-16z m-259 423q-24 0-38 14l-119 120v-348q0-21-16-37t-37-16-37 16-16 37v348l-119-120q-14-14-38-14-23 0-36 14-15 15-15 37t15 37l245 246 245-246q15-15 15-37t-15-37q-14-14-36-14z" horiz-adv-x="938" />
<glyph glyph-name="upload-cloud-outline" unicode="&#xe051;" d="M794 506q108 0 184-76t77-184-77-184-184-77h-573q-88 0-154 62t-67 147q0 66 48 123t96 79v8q0 129 98 221t228 92q103 0 189-59t118-151q4 0 9 1t9 1z m0-416q65 0 111 46t46 111-45 111-110 46q-18 0-43-8l-56-15-10 56q-14 75-71 124t-134 49q-86 0-147-61t-61-147q0-23 4-43l13-63-74 1q-40 0-69-31t-29-74q0-44 30-74t74-30h286v198l-111-113q-8-8-19-8-16 0-24 16t5 29l156 156q6 6 18 7t19-7l156-156q13-13 5-29t-24-16q-11 0-19 8l-111 113v-198h234z" horiz-adv-x="1055" />
<glyph glyph-name="upload-cloud" unicode="&#xe048;" d="M781 506q108 0 184-76t76-184-76-184-184-77h-209v239l68-66q16-16 38-16 20 0 36 16 15 15 15 36t-15 36l-156 156q-14 14-36 14t-38-14l-156-156q-15-15-15-36t15-36q16-16 38-16 20 0 36 16l68 66v-239h-260q-86 0-148 61t-61 148q0 73 44 128t113 73v8q0 130 92 221t221 91q100 0 181-58t113-152q3 0 9 1t10 1z" horiz-adv-x="1041" />
<glyph glyph-name="reply-outline" unicode="&#xe005;" d="M938-1q0-21-15-36t-38-15q-26 0-43 24-60 93-138 133t-183 48v-75q0-43-31-74-30-30-74-29t-73 29l-329 323q-15 15-15 38t15 38l328 323q29 29 73 29t74-29q31-31 31-74v-89q181-36 299-180t118-330v-53z m-468 260q224-5 353-110-30 126-129 214t-231 103l-46 3v183l-290-286 290-286v183q39-1 54-1z" horiz-adv-x="938" />
<glyph glyph-name="reply" unicode="&#xe006;" d="M365 702q20 0 36-16t16-37v-133q178-20 298-153t120-313v-53q-80 121-183 163t-235 46v-130q0-21-16-37t-36-16q-23 0-38 15l-328 324 328 324q15 15 38 15z" horiz-adv-x="834" />
<glyph glyph-name="forward-outline" unicode="&#xe00a;" d="M53-53q-23 0-38 16t-15 36v53q0 186 118 330t299 180v89q0 43 31 74 30 30 74 29t73-29l328-323q15-15 15-38t-15-38l-329-323q-29-29-73-29t-74 29q-31 31-31 74v75q-105-8-183-48t-138-133q-16-24-43-24z m416 311l53 1v-183l290 286-290 286v-183q-20 0-46-3-133-15-231-103t-129-214q129 105 354 110z" horiz-adv-x="938" />
<glyph glyph-name="forward" unicode="&#xe00b;" d="M416 650q0 21 16 37t37 16 36-15l329-324-329-324q-15-15-36-15t-37 16-16 37v130q-133-4-234-46t-182-163v53q0 180 119 313t297 153v133z" horiz-adv-x="834" />
<glyph glyph-name="code-outline" unicode="&#xe049;" d="M378 38q-65 0-111 46l-266 266 266 268q44 44 111 44t111-44q46-46 46-111t-46-111l-45-46 45-45q46-46 46-111t-46-111-110-46z m-230 313l193-193q15-15 37-15t37 15 15 37-15 37l-119 119 119 120q15 15 15 37t-15 37-37 15-37-15z m664-313q-64 0-110 46t-46 111 46 111l46 45-46 46q-46 46-46 111t46 111q44 44 111 44t111-44l266-268-266-266q-46-46-111-46z m0 521q-21 0-36-15t-15-37 15-37l119-120-119-119q-15-15-15-37t15-37 37-15 37 15l193 193-193 194q-15 15-38 15z" horiz-adv-x="1189" />
<glyph glyph-name="code" unicode="&#xe04a;" d="M304 89q-44 0-74 30l-230 230 230 230q31 31 74 31t73-31q31-31 31-74t-31-74l-83-83 83-83q31-31 31-74t-31-74q-30-30-74-30z m399 0q-44 0-74 30-31 31-31 74t31 74l83 83-83 83q-31 31-31 74t31 74q30 31 73 31t74-31l230-230-230-230q-30-30-74-30z" horiz-adv-x="1006" />
<glyph glyph-name="export-outline" unicode="&#xe067;" d="M975 465q15-15 15-37t-15-37q-66-66-141-143v-315q0-21-16-37t-37-16h-729q-21 0-37 16t-16 37v729q0 21 16 37t37 16h416q0 43 33 73t79 31 83-34q120-128 313-320z m-388-320q256 263 276 283-176 179-275 285-4 3-9 3t-8-3v-206h-51q-48 0-86-16t-65-41-46-61-31-69-19-71q113 101 248 103h51v-206q3-3 8-3 4 0 8 4z m-484-160h625v231q-61-61-103-106-18-20-46-20-25 0-42 15t-17 36v156q-179-4-313-208v25q0 60 9 119t32 119 57 105 89 73 126 28v51h-418v-625z" horiz-adv-x="990" />
<glyph glyph-name="export" unicode="&#xe068;" d="M209 141q0 60 9 119t32 119 57 105 89 73 126 28v156q0 21 17 36t42 15q28 0 46-19l311-320q-210-211-311-318-18-20-46-20-25 0-42 15t-17 36v156q-179-4-313-208v25z m-156-234q-21 0-37 16t-16 37v729q0 21 16 37t37 16h416v-105h-365v-625h625v156q65 68 105 108v-315q0-21-16-37t-37-16h-729z" horiz-adv-x="938" />
<glyph glyph-name="pencil" unicode="&#x270e;" d="M938 605q23-23 23-55t-23-55l-570-570q-21-21-59-38t-73-17h-235v234q0 35 17 74t38 60l570 570q23 23 55 23t55-23z m-794-426l65-64 431 433-64 64z m91-205q14 0 33 9-10 10-26 26t-50 50-56 56l-23 23q-9-21-9-33v-78l53-53h79z m74 40l433 433-64 64-433-431z m469 469l68 68-165 165-68-66z" horiz-adv-x="960" />
<glyph glyph-name="pen" unicode="&#xe0b4;" d="M756 846q96 0 166-70t70-166q0-28-9-63 25-78-31-134l-234-235q-38-38-93-38h-4l-113-113q-31-31-79-50-13-5-361-121-10-3-16-3-26 0-43 21t-8 46q116 349 121 361 19 48 51 80 414 413 415 414 71 69 165 69z m-381-778l-159 159q-3-8-15-44t-21-63l89-89q44 14 106 36z m-214-3q-9-25-26-78l79 26z m401 163q-15 23-13 50t22 48l193 193-143 143-371-373q-6-6-10-11l184-184q1 1 6 4t7 5z m316 259q18 18-1 36t-36 1l-235-234q-13-13-5-29t24-16q11 0 19 8z m-79 68q39 39 85 24 4 15 4 31 0 54-39 93-41 39-97 37t-96-42z" horiz-adv-x="992" />
<glyph glyph-name="feather" unicode="&#xe06b;" d="M453 922q189-35 311-182t122-338q0-180-109-322t-281-188v-64q0-21-16-36t-37-15-37 15-16 36v64q-173 46-281 188t-109 322q0 191 123 338t311 182l9 1z m43-921q125 44 204 150t83 240l-164-164q-8-8-19-8-16 0-24 15t5 29l196 196q-11 76-45 141l-114-114q-8-8-19-8-16 0-24 16t5 29l123 123q-96 136-260 170-164-34-260-170l123-123q13-13 5-29t-24-16q-11 0-19 8l-114 114q-34-65-45-141l196-196q13-14 5-29t-24-15q-11 0-19 8l-163 164q4-134 82-240t203-150v609q0 21 16 37t37 16 37-16 16-37v-609z" horiz-adv-x="885" />
<glyph glyph-name="edit" unicode="&#xe062;" d="M966 671q24-24 24-55t-24-55l-185-185v-469q0-21-16-37t-37-16h-676q-21 0-37 16t-16 37v676q0 21 16 37t37 16h469l185 185q24 24 55 24t55-24z m-524-486l328 328-113 113-328-328z m-134 69l4-86 89-4z m369-295v313l-166-160q-20-20-63-34t-81-14h-159v159q0 41 11 83t31 61l165 166h-313v-574h574z m130 590l68 68-114 114-68-68z" horiz-adv-x="990" />
<glyph glyph-name="print" unicode="&#xe0c6;" d="M729 689q65 0 111-46t46-111v-521q0-65-46-111t-111-46h-573q-65 0-111 46t-46 111v521q0 65 46 111t111 46v104q0 21 16 37t37 16h469q21 0 36-16t15-37v-104z m-469 51v-260h365v260h-365z m-104-156q-21 0-37-15t-16-36v-131q0-31 23-54t56-23h520q33 0 56 23t23 54v131q0 21-16 36t-37 15v-156q0-21-15-36t-36-15h-469q-21 0-37 15t-16 36v156z m573-625q21 0 37 16t16 37v288q-36-28-79-28h-520q-43 0-79 28v-288q0-21 16-37t37-16h573z m-181 625q25 0 25-25 0-26-25-26h-209q-11 0-19 8t-8 19q0 25 26 25h209z m78-469q11 0 19-8t8-19q0-25-26-25h-365q-25 0-25 25 0 26 25 26h365z m-78 574q25 0 25-26t-25-26h-209q-11 0-19 8t-8 19 8 19 19 8h209z" horiz-adv-x="885" />
<glyph glyph-name="comment" unicode="&#xe0ab;" d="M781 662h-625q-21 0-37-15t-16-36v-365q0-21 16-37t37-16h156v-9l9 9h460q21 0 37 16t16 37v365q0 21-16 36t-37 15z m0 105q65 0 111-46t46-111v-365q0-65-46-111t-111-46h-416l-156-156v156h-53q-65 0-111 46t-46 111v365q0 65 46 111t111 46h625z" horiz-adv-x="938" />
<glyph glyph-name="chat" unicode="&#xe0aa;" d="M834 767q65 0 111-46t46-111v-365q0-65-46-111t-111-46h-469l-156-156v156h-53q-65 0-111 46t-46 111v365q0 65 46 111t111 46h678z m51-521v365q0 21-15 37t-36 16h-678q-21 0-37-16t-16-37v-365q0-21 16-36t37-15h678q21 0 36 15t15 36z m-625 79q-43 0-73 30t-31 74 31 74 73 30q44 0 74-31t31-73-31-73-74-31z m0 156q-21 0-36-16t-15-37 15-36 36-15 37 15 16 36-16 37-37 16z m235-156q-44 0-74 31t-31 73 31 73 74 31q43 0 73-30t31-74-31-74-73-30z m0 156q-21 0-37-16t-16-37 16-36 37-15 37 15 16 36-16 37-37 16z m234-156q-44 0-74 30t-30 74 30 74 74 30 74-31 31-73-31-73-74-31z m0 156q-21 0-36-16t-15-37 15-36 36-15 37 15 16 36-16 37-37 16z" horiz-adv-x="990" />
<glyph glyph-name="chat-alt" unicode="&#xe0ac;" d="M1094 688q65 0 111-46t46-111v-364q0-65-46-111t-111-46h-53v-156l-156 156h-416q-65 0-111 46t-46 111l-156-156v156q-65 0-111 46t-46 111v364q0 65 46 111t111 46h625q65 0 111-46t46-111h156z m-938-416h209v234q0 54 38 93t92 39h339v51q0 21-16 37t-37 16h-625q-21 0-37-16t-16-37v-364q0-21 16-37t37-16z m990-104v364q0 21-16 37t-37 16h-599q-33 0-56-23t-23-56v-338q0-21 16-37t37-16h625q21 0 37 16t16 37z" horiz-adv-x="1250" />
<glyph glyph-name="bell" unicode="&#xe02e;" d="M819 100q24-26 9-58t-47-31h-164q-18-69-74-113t-128-44-127 44-73 113h-164q-33 0-48 33t10 58q4 4 10 12t21 37 27 63 22 93 10 123q0 101 58 182t151 113q-1 6-1 18 0 43 30 73t74 31 74-31 31-73q0-5-3-18 93-33 151-113t59-182q0-65 10-123t22-93 27-63 21-37 10-13z m-403 536q-86 0-147-61t-61-147q0-61-5-105h426q-6 54-6 105 0 86-61 147t-146 61z m0-676q61 0 90 51h-179q29-51 89-51z m-270 156h541q-31 65-49 156h-444q-18-91-49-156z" horiz-adv-x="834" />
<glyph glyph-name="attention" unicode="&#xe088;" d="M514 701q-49 0-81-55l-308-513q-33-55-11-95t87-40h625q65 0 86 40t-11 95l-308 513q-33 55-80 55z m0 105q106 0 169-106l309-514q63-105 11-199-51-93-176-93h-625q-124 0-178 93-53 93 11 199l309 514q63 106 170 106z m78-690q-5-5-13-13t-36-19-56-11q-39 3-55 34t-1 78l21 63q15 45-13 60-10 4-23 2t-23-6l-11-5q5 5 14 13t36 19 56 11q39-3 55-34t1-78l-21-63q-16-45 11-60 10-4 23-2t24 6z m-146 351q0 69 69 69 68 0 68-69 0-68-68-68-69 0-69 68z" horiz-adv-x="1026" />
<glyph glyph-name="attention-filled" unicode="&#x26a0;" d="M991 186q64-106 11-199-51-93-176-93h-625q-126 0-178 93-53 93 11 199l309 514q63 106 170 106 106 0 169-106z m-478 363q-34 0-58-24t-24-58 24-57 58-23 57 23 23 57-23 58-57 24z m88-441q8 9 0 18t-16 4q-29-11-36-11-28 0-13 45l20 64q16 51-3 89t-64 40q-31 1-60-11t-41-23-15-14q-8-9 0-17t16-3q25 10 38 10 28 0 13-45l-21-64q-18-54 4-91t72-38q30 0 57 12t38 22 13 14z" horiz-adv-x="1026" />
<glyph glyph-name="warning-empty" unicode="&#xe11a;" d="M514 701q-49 0-81-55l-308-513q-33-55-11-95t87-40h625q65 0 86 40t-11 95l-308 513q-33 55-80 55z m0 105q106 0 169-106l309-514q63-105 11-199-51-93-176-93h-625q-124 0-178 93-53 93 11 199l309 514q63 106 170 106z m-69-651q0 69 69 69 68 0 68-69 0-68-68-68-69 0-69 68z m146 313q0-14-6-29l-71-179q-44 108-73 179-6 15-6 29 0 33 23 56t56 23 55-23 23-56z" horiz-adv-x="1026" />
<glyph glyph-name="warning" unicode="&#xe11b;" d="M991 186q64-106 11-199-51-93-176-93h-625q-126 0-178 93-53 93 11 199l309 514q63 106 170 106 106 0 169-106z m-478-111q34 0 57 23t23 57-23 58-57 24-58-24-24-58 24-57 58-23z m85 386q5 14 5 33 0 38-26 64t-64 27-64-27-27-64q0-18 6-34l73-179q5-9 13-9t11 9q74 179 74 180z" horiz-adv-x="1026" />
<glyph glyph-name="contacts" unicode="&#xe04f;" d="M834 819q65 0 111-46t46-111v-625q0-65-46-111t-111-46h-574q-65 0-111 46t-46 111v53h-51q-21 0-37 15t-16 36 16 37 37 16h51v104h-51q-21 0-37 16t-16 37 16 37 37 16h51v104h-51q-21 0-37 16t-16 37 16 36 37 15h51v53q0 65 46 111t111 46h574z m-625-156v-53h51v105q-21 0-36-16t-15-37z m0-156v-104h51v104h-51z m0-209v-104h51v104h-51z m0-260q0-21 15-37t36-16v105h-51v-53z m676 0v625q0 21-15 37t-36 16h-521v-730h521q21 0 36 16t15 37z m-416 390q0 105 104 105 105 0 105-105 0-104-105-104-104 0-104 104z m104-148q56 0 93-23t37-53q0-15-38-26t-93-11q-59 0-94 11t-36 26q0 30 36 53t94 23z" horiz-adv-x="990" />
<glyph glyph-name="vcard" unicode="&#xe033;" d="M990-66h-834q-65 0-111 46t-46 111v520q0 65 46 111t111 46h834q65 0 111-46t46-111v-520q0-65-46-111t-111-46z m-834 729q-21 0-37-16t-16-37v-520q0-21 16-37t37-16h834q21 0 36 16t15 37v520q0 21-15 37t-36 16h-834z m313-469h-209q-21 0-36 16t-15 37 15 36 36 15h209q21 0 37-15t16-36-16-37-37-16z m0 209h-209q-21 0-36 15t-15 36 15 37 36 16h209q21 0 37-16t16-37-16-36-37-15z m209 25q0 105 104 105t104-105q0-104-104-104t-104 104z m104-148q56 0 93-23t37-53q0-15-38-26t-93-11q-59 0-94 11t-36 26q0 30 36 53t94 23z" horiz-adv-x="1146" />
<glyph glyph-name="address" unicode="&#xe059;" d="M933 533l-143-135-4-4q48-54 48-121 0-75-54-129t-129-54h-141l-41-209h-53l-41 209h-115q-69 0-118 49l-134 134 96 96q-48 21-76 66t-29 98q0 75 54 129t129 54h183v26q0 31 23 54t55 23 56-23 23-54v-26h151q68 0 116-46z m-281-339q31 0 54 23t23 56-23 55-54 23h-391q-26 0-44-18l-60-60 60-60q19-19 44-19h391z m66 279l64 60-64 60q-19 19-45 19h-490q-33 0-56-23t-23-56q0-31 23-54t56-23h490q28 0 45 18z" horiz-adv-x="933" />
<glyph glyph-name="location-outline" unicode="&#xe094;" d="M416 741q-129 0-221-90-91-89-91-216 0-126 91-215l221-219 223 219q90 88 90 215 0 129-90 216-93 90-223 90z m0 104q174 0 295-120t121-290-121-290l-295-290-294 290q-123 120-123 290t123 290 294 120z m0-286q-53 0-91-39t-39-92 39-92q38-38 91-38 55 0 93 38 39 39 39 92t-39 92-93 39z m0 53q75 0 129-54t54-129-54-129-129-54-129 54-54 129 54 129 129 54z" horiz-adv-x="833" />
<glyph glyph-name="location" unicode="&#xe095;" d="M711 725q121-120 121-290t-121-290l-295-290-294 290q-123 120-123 290t123 290 295 120 294-120z m-295-426q55 0 93 38 39 39 39 92t-39 92-93 39q-53 0-91-39t-39-92 39-92q38-38 91-38z" horiz-adv-x="833" />
<glyph glyph-name="map" unicode="&#xe09b;" d="M53-93q-23 0-38 16t-15 36v521q0 21 15 36l235 235q14 14 34 15t35-11l224-179 203 201q25 25 57 10t32-48v-520q0-21-16-38l-234-234q-14-14-34-15t-36 11l-224 179-201-201q-15-15-36-15z m51 178q153 150 156 153v378l-156-156v-374z m215 149l203-161v389l-209 165v-389q1-1 3-3t3-1z m410 8v374q-153-151-156-154v-376z" horiz-adv-x="834" />
<glyph glyph-name="direction-outline" unicode="&#xe092;" d="M416-47q-60 0-86 78l-64 189-189 63q-74 24-78 84-4 58 68 90l593 278q41 19 73 13t49-33q25-41-3-100l-276-593q-31-68-88-68z m-280 420l213-71 71-214 249 534z" horiz-adv-x="795" />
<glyph glyph-name="direction" unicode="&#xe093;" d="M328 47l-71 214-214 71q-28 9-38 23t-2 29 34 26l593 276q40 18 54 3t-3-54l-278-593q-11-26-26-34t-28 2-23 38z" horiz-adv-x="691" />
<glyph glyph-name="compass" unicode="&#xe04e;" d="M469 715q-151 0-258-107t-107-258 107-258 258-107 258 107 107 258-107 258-258 107z m0 104q194 0 331-138t138-331-138-331-331-138-331 138-138 331 138 331 331 138z m193-244q14 4 25-8t8-25l-90-310q-4-14-18-18l-310-90h-6q-13 0-21 10t-5 23l90 310q4 14 18 18z m-354-386l251 71-180 180z" horiz-adv-x="938" />
<glyph glyph-name="trash" unicode="&#xe10a;" d="M729 636q21 0 37-15t16-36-16-37-37-16v-416q0-86-61-148t-147-61h-261q-86 0-147 61t-61 148v416q-21 0-37 16t-16 37 16 36 37 15h51v53q0 43 31 73t74 31h364q44 0 74-31t31-73v-53h51z m-520 53v-53h364v53h-364z m416-573v416h-469v-416q0-44 31-74t73-31h261q43 0 73 31t31 74z m-390 338q10 0 18-8t8-18v-313q0-10-8-18t-18-8-18 8-8 18v313q0 10 8 18t18 8z m104 0q10 0 18-8t8-18v-313q0-10-8-18t-18-8-18 8-8 18v313q0 10 8 18t18 8z m104 0q10 0 18-8t8-18v-313q0-10-8-18t-18-8-18 8-8 18v313q0 10 8 18t18 8z m105 0q10 0 18-8t8-18v-313q0-10-8-18t-18-8-18 8-8 18v313q0 10 8 18t18 8z" horiz-adv-x="781" />
<glyph glyph-name="doc" unicode="&#xe05f;" d="M818 595q16-16 16-36v-521q0-65-46-111t-111-46h-521q-65 0-111 46t-46 111v625q0 65 46 111t111 46h416q23 0 38-15z m-110-36l-135 134v-56q0-31 23-54t56-23h56z m-30-574q21 0 36 16t15 37v469h-78q-54 0-92 38t-38 92v79h-365q-21 0-37-16t-16-37v-625q0-21 16-37t37-16h521z" horiz-adv-x="834" />
<glyph glyph-name="doc-text" unicode="&#xe05e;" d="M678-119h-521q-65 0-111 46t-46 111v625q0 65 46 111t111 46h521q65 0 111-46t46-111v-625q0-65-46-111t-111-46z m-521 834q-21 0-37-16t-16-37v-625q0-21 16-37t37-16h521q21 0 36 16t15 37v625q0 21-15 37t-36 16h-521z m469-313h-416q-26 0-26 25 0 11 8 19t19 8h416q11 0 19-8t8-19q0-25-26-25z m0 156h-416q-11 0-19 8t-8 19q0 25 26 25h416q26 0 26-25 0-11-8-19t-19-8z m0-313h-416q-11 0-19 8t-8 19q0 25 26 25h416q26 0 26-25 0-11-8-19t-19-8z m0-156h-416q-26 0-26 25 0 11 8 19t19 8h416q11 0 19-8t8-19q0-25-26-25z" horiz-adv-x="834" />
<glyph glyph-name="doc-add" unicode="&#xe05c;" d="M573 350q21 0 37-16t16-37-16-36-37-15h-104v-105q0-21-16-36t-37-15-36 15-15 36v105h-105q-21 0-36 15t-15 36 15 37 36 16h105v104q0 21 15 37t36 16 37-16 16-37v-104h104z m245 245q16-16 16-36v-521q0-65-46-111t-111-46h-521q-65 0-111 46t-46 111v625q0 65 46 111t111 46h416q23 0 38-15z m-110-36l-135 134v-56q0-31 23-54t56-23h56z m-30-574q21 0 36 16t15 37v469h-78q-54 0-92 38t-38 92v79h-365q-21 0-37-16t-16-37v-625q0-21 16-37t37-16h521z" horiz-adv-x="834" />
<glyph glyph-name="doc-remove" unicode="&#xe05d;" d="M818 595q16-16 16-36v-521q0-65-46-111t-111-46h-521q-65 0-111 46t-46 111v625q0 65 46 111t111 46h416q23 0 38-15z m-110-36l-135 134v-56q0-31 23-54t56-23h56z m-30-574q21 0 36 16t15 37v469h-78q-54 0-92 38t-38 92v79h-365q-21 0-37-16t-16-37v-625q0-21 16-37t37-16h521z m-105 261h-313q-21 0-36 15t-15 36 15 37 36 16h313q21 0 37-16t16-37-16-36-37-15z" horiz-adv-x="834" />
<glyph glyph-name="news" unicode="&#xe0b1;" d="M1041 767q44 0 74-31t31-73v-625q0-43-31-73t-74-31h-938q-44 0-74 31t-30 73v625q0 43 30 73t74 31h938z m-938-104v-625h418v625h-418z m938-625v625h-469v-625h469z m-51 235v-158q0-10-8-18t-18-8h-53q-10 0-18 8t-8 18v158q0 10 8 18t18 8h53q10 0 18-8t8-18z m-156 313v-261q0-10-8-18t-18-8h-156q-10 0-18 8t-8 18v261q0 10 8 18t18 8h156q10 0 18-8t8-18z m78-131q-10 0-18 8t-8 18 8 18 18 8h53q10 0 18-8t8-18-8-18-18-8h-53z m0-104q-10 0-18 8t-8 18 8 18 18 8h53q10 0 18-8t8-18-8-18-18-8h-53z m-260-156q-10 0-18 8t-8 18 8 18 18 8h156q10 0 18-8t8-18-8-18-18-8h-156z m156-53q10 0 18-8t8-18-8-18-18-8h-156q-10 0-18 8t-8 18 8 18 18 8h156z m104 418q-10 0-18 8t-8 18 8 18 18 8h53q10 0 18-8t8-18-8-18-18-8h-53z m-443 26v-158q0-10-8-18t-18-8h-260q-10 0-18 8t-8 18v158q0 10 8 18t18 8h260q10 0 18-8t8-18z m-26-339q10 0 18-8t8-18-8-18-18-8h-260q-10 0-18 8t-8 18 8 18 18 8h260z m0 104q10 0 18-8t8-18-8-18-18-8h-260q-10 0-18 8t-8 18 8 18 18 8h260z m0-209q10 0 18-8t8-18-8-18-18-8h-260q-10 0-18 8t-8 18 8 18 18 8h260z" horiz-adv-x="1146" />
<glyph glyph-name="folder" unicode="&#xe077;" d="M781 663q65 0 111-46t46-111v-416q0-65-46-111t-111-46h-625q-65 0-111 46t-46 111v520q0 65 46 111t111 46h209q43 0 73-31t31-73h313z m-625 0q-21 0-37-16t-16-37v-104h730q0 21-16 37t-37 16h-313q-44 0-74 31t-30 73h-209z m625-625q21 0 37 16t16 37v364h-730v-364q0-21 16-37t37-16h625z" horiz-adv-x="938" />
<glyph glyph-name="folder-add" unicode="&#xe075;" d="M781 663q65 0 111-46t46-111v-416q0-65-46-111t-111-46h-625q-65 0-111 46t-46 111v520q0 65 46 111t111 46h209q43 0 73-31t31-73h313z m0-625q21 0 37 16t16 37v364h-209q-10 0-18 8t-8 18 8 18 18 8h209q0 21-16 37t-37 16h-313q-44 0-74 31t-30 73h-209q-21 0-37-16t-16-37v-104h209q10 0 18-8t8-18-8-18-18-8h-209v-364q0-21 16-37t37-16h625z m-156 313q21 0 37-16t16-37-16-36-37-15h-104v-105q0-21-16-36t-37-15-37 15-16 36v105h-104q-21 0-37 15t-16 36 16 37 37 16h104v104q0 21 16 37t37 16 37-16 16-37v-104h104z" horiz-adv-x="938" />
<glyph glyph-name="folder-delete" unicode="&#xe076;" d="M781 663q65 0 111-46t46-111v-416q0-65-46-111t-111-46h-625q-65 0-111 46t-46 111v520q0 65 46 111t111 46h209q43 0 73-31t31-73h313z m-625 0q-21 0-37-16t-16-37v-104h730q0 21-16 37t-37 16h-313q-44 0-74 31t-30 73h-209z m625-625q21 0 37 16t16 37v364h-730v-364q0-21 16-37t37-16h625z m-156 209h-313q-21 0-37 15t-16 36 16 37 37 16h313q21 0 37-16t16-37-16-36-37-15z" horiz-adv-x="938" />
<glyph glyph-name="archive" unicode="&#xe004;" d="M573 376q11 0 19-8t8-19-8-19-19-8h-156q-11 0-19 8t-8 19 8 19 19 8h156z m365 365q21 0 37-16t16-37-16-37-37-16h-885q-21 0-37 16t-16 37 16 37 37 16h885z m-104-156q21 0 36-16t15-37v-416q0-65-46-111t-111-46h-469q-65 0-111 46t-46 111v416q0 21 16 37t37 16h678z m-105-521q21 0 37 16t16 37v364h-573v-364q0-21 15-37t36-16h469z" horiz-adv-x="990" />
<glyph glyph-name="box" unicode="&#xe0d1;" d="M678 793q65 0 111-46t46-111v-573q0-65-46-111t-111-46h-521q-65 0-111 46t-46 111v573q0 65 46 111t111 46h521z m51-729v379q-24-14-51-14h-79q0-75-54-129t-129-54-128 54-53 129h-79q-29 0-53 14v-379q0-21 16-37t37-16h521q21 0 36 16t15 37z m-443 365q0-54 38-92t92-38 93 38 39 92h-261z m443 104v104q0 21-15 37t-36 16h-521q-21 0-37-16t-16-37v-104q0-21 16-37t37-16h521q21 0 36 16t15 37z" horiz-adv-x="834" />
<glyph glyph-name="rss-outline" unicode="&#xe0cd;" d="M156 767q138 0 263-54t216-144 144-216 54-263q0-65-46-111t-111-46h-469q-86 0-148 61t-61 148v469q0 65 46 111t111 46z m53-730q43 0 73 31t31 74q0 43-30 73t-74 31-74-31-30-73q0-44 31-74t73-31z m235 0q33 0 55 23t23 56q0 140-99 239t-239 99q-33 0-55-23t-23-56 23-55 55-23q75 0 129-54t54-129q0-33 23-56t56-23z m208 0q33 0 56 23t23 56q0 148-74 274t-199 199-274 73q-33 0-55-23t-23-55 23-56 55-23q161 0 276-114t115-276q0-33 23-56t55-23z" horiz-adv-x="834" />
<glyph glyph-name="rss" unicode="&#xe0ce;" d="M104 142q44 0 74-31t31-73-31-73-74-31-74 31-30 73 30 73 74 31z m0 625q198 0 366-98t266-266 98-366q0-43-31-73t-74-31-74 31-30 73q0 215-153 368t-369 153q-44 0-74 31t-30 73 30 73 74 31z m0-313q173 0 295-122t123-294q0-43-31-73t-74-31-74 31-30 73q0 86-61 148t-148 61q-44 0-74 31t-30 73 30 73 74 31z" horiz-adv-x="834" />
<glyph glyph-name="phone-outline" unicode="&#xe0b6;" d="M964 733q31-31 53-74t27-109-12-137-74-164-149-185q-236-236-454-236-134 0-215 81l-93 93q-46 46-46 111t46 111l83 83q46 46 110 46t110-46l73-71 218 216-73 73q-46 46-46 111t46 111l83 83q45 45 111 45 65 0 110-45z m-324-63q-15-15-15-37t15-37l56-56 156 156-56 56q-15 15-36 15-23 0-38-15z m-521-595l58-56 156 156-58 56q-15 15-36 15t-36-15l-84-83q-15-15-15-37t15-37z m615 63q81 81 130 159t64 133 11 105-17 78-32 47l-156-156 15-15q15-15 15-37t-15-37l-291-291q-15-15-36-15-23 0-38 15l-15 16-156-158q50-50 141-50 174 0 380 206z" horiz-adv-x="1044" />
<glyph glyph-name="phone" unicode="&#x1f4de;" d="M566 555l-23 23q-23 23-23 55t23 55l83 84q23 23 55 23t55-23l24-24z m-350-305l23-23-193-194-24 23q-23 23-23 56t23 55l83 83q23 23 56 23t56-23z m614 428q10-10 23-28t26-71 6-113-60-154-151-193q-214-214-399-214-101 0-159 58l-19 18 194 194 34-34q18-18 36 0l291 291q8 8 8 18 0 11-8 19l-34 34 193 194z" horiz-adv-x="888" />
<glyph glyph-name="menu-outline" unicode="&#xe0fd;" d="M885 38h-729q-21 0-37-16t-16-37 16-36 37-15h729q21 0 37 15t16 36-16 37-37 16z m0 104q65 0 111-46t46-111-46-111-111-46h-729q-65 0-111 46t-46 111 46 111 111 46h729z m0 261h-729q-21 0-37-16t-16-37 16-37 37-16h729q21 0 37 16t16 37-16 37-37 16z m0 104q65 0 111-46t46-111-46-111-111-46h-729q-65 0-111 46t-46 111 46 111 111 46h729z m0 260h-729q-21 0-37-15t-16-36 16-37 37-16h729q21 0 37 16t16 37-16 36-37 15z m0 105q65 0 111-46t46-111-46-111-111-46h-729q-65 0-111 46t-46 111 46 111 111 46h729z" horiz-adv-x="1041" />
<glyph glyph-name="menu" unicode="&#xe0fe;" d="M834 90q43 0 73-31t31-74q0-43-30-73t-74-31h-730q-44 0-74 31t-30 73q0 44 31 74t73 31h730z m0 364q44 0 74-31t30-73-30-73-74-31h-730q-44 0-74 31t-30 73 30 73 74 31h730z m0 365q44 0 74-31t30-73q0-44-31-74t-73-31h-730q-43 0-73 31t-31 74q0 43 30 73t74 31h730z" horiz-adv-x="938" />
<glyph glyph-name="cog-outline" unicode="&#xe04c;" d="M560 741h-156l-45-179-176 51-79-136 133-128-133-128 79-135 176 50 45-178h156l44 178 178-50 78 135-133 128 133 128-78 136-178-51z m0 104q35 0 63-22t37-57l19-74 74 21q15 4 29 4 60 0 90-53l78-135q18-31 13-66t-31-60l-55-54 55-53q25-25 30-60t-13-66l-78-136q-30-51-90-51-14 0-29 4l-74 20-18-74q-9-35-37-57t-64-22h-156q-36 0-64 22t-37 57l-19 74-73-21q-15-4-29-4-60 0-90 53l-79 135q-18 31-13 67t31 61l55 53-55 53q-25 25-30 61t13 67l79 135q30 53 90 53 14 0 29-4l73-21 19 74q9 35 37 57t64 22h156z m-79-391q-44 0-74-30t-30-74 30-74 74-30 74 31 31 73-31 73-74 31z m0 53q65 0 111-46t46-111-46-111-111-46-111 46-46 111 46 111 111 46z" horiz-adv-x="963" />
<glyph glyph-name="cog" unicode="&#x2699;" d="M250 87q-5 20-24 31t-40 5l-76-23q-21-6-44 3t-33 28l-26 45q-10 19-6 43t19 39l56 55q15 15 15 36t-15 36l-56 55q-16 15-19 39t8 43l25 46q10 19 33 28t44 3l76-21q21-6 40 5t24 31l19 76q6 21 25 36t40 15h51q21 0 40-15t25-36l20-76q6-21 24-31t38-5l76 21q21 6 44-3t33-28l26-46q10-19 6-43t-19-39l-56-55q-16-15-16-36t16-36l56-55q15-15 19-39t-6-43l-26-45q-10-19-33-28t-44-3l-76 23q-20 5-38-5t-24-31l-20-78q-6-21-25-36t-40-14h-51q-21 0-40 14t-25 36z m110 366q-44 0-74-31t-31-73 31-73 74-31q43 0 73 30t31 74-31 74-73 30z" horiz-adv-x="718" />
<glyph glyph-name="wrench-outline" unicode="&#xe0ee;" d="M209 115q0 53 51 53 53 0 53-53 0-51-53-51-51 0-51 51z m105 371q0 3-1 10t-1 10q0 140 99 239 100 100 240 100 109 0 200-66 15-15 15-36t-15-36q15 15 36 15t36-15q66-91 66-200 0-140-100-240-99-99-239-99-4 0-10 1t-10 1q-138-180-173-221-76-93-199-93-108 0-184 76t-76 184q0 118 93 199 108 91 221 173z m-210-371q0-64 46-110t110-46q73 0 119 56 51 59 120 151 65 86 90 115 36-10 63-10 96 0 165 69t69 166q0 28-10 65l-146-144-130 26-26 130 149 145q-38 11-70 11-96 0-166-69t-69-165q0-26 10-63-34-28-116-90-75-56-150-119-56-49-56-120z m750 508q-29 50-83 83l-141-139 14-68 69-15z" horiz-adv-x="990" />
<glyph glyph-name="wrench" unicode="&#x1f527;" d="M804 597q30-9 30-90 0-108-77-184t-184-76q-28 0-53 5-31-39-90-116t-109-136q-55-65-139-65-75 0-129 53t-54 128q0 84 64 140 59 50 138 108t118 91q-6 31-6 53 0 108 76 184t184 76q39 0 78-13 14-4 18-18t-7-26l-139-135 20-99 100-20 136 133q11 11 25 8z m-621-533q21 0 37 15t16 36-16 37-37 16-37-16-16-37 16-36 37-15z" horiz-adv-x="834" />
<glyph glyph-name="basket" unicode="&#xe0d2;" d="M950 715q23 0 39-19t13-41l-53-365q-3-19-17-31t-34-13h-590l9-53h529q21 0 37-16t16-37-16-36-37-15h-573q-20 0-34 13t-17 30l-98 583h-73q-21 0-37 15t-16 36 16 37 37 16h116q19 0 34-13t18-31l11-60h719z m-60-105h-200v-104h185z m-253 0h-156v-104h156v104z m0-156h-156v-104h156v104z m-208 156h-183l19-105q3 1 8 1h156v104z m-156-156l18-104h139v104h-156z m416-104h164l14 104h-178v-104z m-416-390q0 78 78 78 79 0 79-78 0-79-79-79-78 0-78 79z m469 0q0 78 78 78 79 0 79-78 0-79-79-79-78 0-78 79z" horiz-adv-x="1003" />
<glyph glyph-name="calendar-outlilne" unicode="&#xe035;" d="M834 653q46-16 75-56t29-90v-469q0-65-46-111t-111-46h-625q-65 0-111 46t-46 111v469q0 50 29 90t75 56v10q0 65 46 111t111 46 111-46 46-111h105q0 65 46 111t111 46 111-46 46-111v-10z m-209 10v-104q0-21 16-37t37-16 36 16 15 37v104q0 21-15 37t-36 16-37-16-16-37z m-416 0v-104q0-21 15-37t36-16 37 16 16 37v104q0 21-16 37t-37 16-36-16-15-37z m625-625v313h-730v-313q0-21 16-37t37-16h625q21 0 37 16t16 37z m0 365v104q0 21-16 37t-37 16q0-44-31-74t-73-31-74 31-31 74h-208q0-44-31-74t-74-31-73 31-31 74q-21 0-37-16t-16-37v-104h730z" horiz-adv-x="938" />
<glyph glyph-name="calendar" unicode="&#xe036;" d="M834 653q46-16 75-56t29-90v-469q0-65-46-111t-111-46h-625q-65 0-111 46t-46 111v469q0 50 29 90t75 56v10q0 65 46 111t111 46 111-46 46-111h105q0 65 46 111t111 46 111-46 46-111v-10z m-209 10v-104q0-21 16-37t37-16 36 16 15 37v104q0 21-15 37t-36 16-37-16-16-37z m-416 0v-104q0-21 15-37t36-16 37 16 16 37v104q0 21-16 37t-37 16-36-16-15-37z m625-625v313h-730v-313q0-21 16-37t37-16h625q21 0 37 16t16 37z" horiz-adv-x="938" />
<glyph glyph-name="mic-outline" unicode="&#xe0ad;" d="M365 142q-86 0-148 61t-61 148v313q0 86 61 148t148 61 147-61 61-148v-313q0-86-61-148t-147-61z m0 625q-44 0-74-31t-31-73v-313q0-43 31-73t74-31q43 0 73 31t31 73v313q0 43-31 73t-73 31z m364-416q0-136-89-239t-223-121v-56h156q21 0 37-16t16-37-16-37-37-16h-416q-21 0-37 16t-16 37 16 37 37 16h156v56q-134 19-223 121t-89 239v104q0 21 16 37t37 16 36-16 15-37v-104q0-108 77-184t184-76 184 76 76 184v104q0 21 16 37t37 16 36-16 15-37v-104z" horiz-adv-x="729" />
<glyph glyph-name="mic" unicode="&#x1f3a4;" d="M365 142q-86 0-148 61t-61 148v313q0 86 61 148t148 61 147-61 61-148v-313q0-86-61-148t-147-61z m364 209q0-136-89-239t-223-121v-56h156q21 0 37-16t16-37-16-37-37-16h-416q-21 0-37 16t-16 37 16 37 37 16h156v56q-134 19-223 121t-89 239v104q0 21 16 37t37 16 36-16 15-37v-104q0-108 77-184t184-76 184 76 76 184v104q0 21 16 37t37 16 36-16 15-37v-104z" horiz-adv-x="729" />
<glyph glyph-name="volume-off" unicode="&#xe117;" d="M766 730q15-15 15-36t-15-36l-141-141v-448q0-54-29-84t-68-30q-35 0-70 24l-139 93q-36 25-99 40l-131-131q-15-15-36-15-23 0-38 15t-15 37 15 37l80 80q-43 18-69 57t-26 87v104q0 65 46 111t111 46q36 0 85 14t78 34l139 93q35 24 70 24 59 0 84-53l81 80q15 15 37 15t37-15z m-251-138l-99-65v-110l105 105v68q0 1-1 4v3q-3-3-5-4z m-411-211v-104q0-21 16-37t37-16q26 0 61-6l148 148v126q-44-25-103-42t-106-17q-21 0-37-16t-16-37z m173-178q50-15 89-39v128z m244-141v3q1 3 1 4v380l-105-104v-214l99-65q3-1 5-4z" horiz-adv-x="781" />
<glyph glyph-name="volume-low" unicode="&#xe119;" d="M528 724q39 0 68-29t29-83v-521q0-54-29-84t-68-30q-35 0-70 24l-139 93q-29 20-78 35t-84 15q-65 0-111 46t-46 111v104q0 65 46 111t111 46q36 0 85 14t78 34l139 93q35 24 70 24z m-163-538v328q-44-25-103-42t-106-17q-21 0-37-16t-16-37v-104q0-21 16-37t37-16q46 0 106-18t103-43z m156-96v521q0 1-1 4v3q-3-3-5-4l-99-65v-396l99-65q3-1 5-4v3q1 3 1 4z" horiz-adv-x="625" />
<glyph glyph-name="volume-middle" unicode="&#xe116;" d="M528 724q39 0 68-29t29-83v-521q0-54-29-84t-68-30q-35 0-70 24l-139 93q-29 20-78 35t-84 15q-65 0-111 46t-46 111v104q0 65 46 111t111 46q36 0 85 14t78 34l139 93q35 24 70 24z m-371-478q46 0 106-18t103-43v328q-44-25-103-42t-106-17q-21 0-37-16t-16-37v-104q0-21 16-37t37-16z m365-156v521q0 1-1 4v3q-3-3-5-4l-99-65v-396l99-65q3-1 5-4v3q1 3 1 4z m171 401q15 15 37 15t37-15q59-59 59-141 0-81-59-140-16-16-38-16-20 0-36 16-15 15-15 36t15 36q28 28 28 68t-28 68q-15 15-15 37t15 37z" horiz-adv-x="825" />
<glyph glyph-name="volume-high" unicode="&#xe118;" d="M766 492q59-59 59-141 0-81-59-140-16-16-38-16-20 0-36 16-15 15-15 36t15 36q28 28 28 68t-28 68q-15 15-15 37t15 37 37 15 37-15z m104 104q101-101 101-244 0-145-101-246-15-15-36-15-23 0-38 15t-15 37 15 37q70 70 70 172t-70 172q-15 15-15 36t15 36 37 15 37-15z m104 105q145-143 145-349 0-205-145-350-15-15-36-15t-36 15-15 37 15 37q114 114 114 276 0 161-114 275-15 15-16 37t14 37 37 15 37-15z m-446 24q39 0 68-29t29-83v-521q0-54-29-84t-68-30q-35 0-70 24l-139 93q-29 20-78 35t-84 15q-65 0-111 46t-46 111v104q0 65 46 111t111 46q36 0 85 14t78 34l139 93q35 24 70 24z m-371-478q46 0 106-18t103-43v328q-44-25-103-42t-106-17q-21 0-37-16t-16-37v-104q0-21 16-37t37-16z m365-156v521q0 1-1 4v3q-3-3-5-4l-99-65v-396l99-65q3-1 5-4v3q1 3 1 4z" horiz-adv-x="1119" />
<glyph glyph-name="headphones" unicode="&#xe07d;" d="M938 350v-135q0-1-1-3t-1-3q1-13 1-41v-104q0-75-54-129t-129-54-129 54-54 129v104q0 59 29 106t75 66q-4 83-64 141t-144 58-144-58-64-141q46-19 75-66t29-106v-104q0-75-54-129t-129-54-129 54-54 129v104q0 29 1 41 0 1-1 3t-1 3v135q0 194 138 331t331 138 331-138 138-331z m-834 0v-51h53q0 51 1 51 8 99 68 174l-46 46q-75-99-75-220z m156-286v104q0 34-16 56t-36 23h-99q-6-44-6-79v-104q0-31 23-54t56-23 55 23 23 54z m386 469q14 14 40 39t39 38l33 33q-120 120-289 120t-289-120l93-93 19-18q73 73 178 73t178-73z m188-469v104q0 35-6 79h-99q-20 0-36-23t-16-56v-104q0-31 23-54t55-23 56 23 23 54z m0 235v51q0 121-75 220l-46-46q61-78 69-174v-51h53z" horiz-adv-x="938" />
<glyph glyph-name="clock" unicode="&#x1f554;" d="M678 350q0-21-16-36t-37-15h-156q-21 0-37 15t-16 36 16 37 37 16h156q21 0 37-16t16-37z m-209 365q-151 0-258-107t-107-258 107-258 258-106 258 106 107 258-107 258-258 107z m0 104q194 0 331-138t138-331-138-331-331-138-331 138-138 331 138 331 331 138z m53-313v-156q0-21-16-36t-37-15-37 15-16 36v156q0 21 16 37t37 16 37-16 16-37z m-53 105q-108 0-184-77t-76-184 76-184 184-76 184 76 76 184-76 184-184 77z m0 51q129 0 221-91t92-221-92-221-221-91-221 91-92 221 92 221 221 91z" horiz-adv-x="938" />
<glyph glyph-name="wristwatch" unicode="&#xe11c;" d="M365 298q-21 0-37 16t-16 37v104q0 21 16 37t37 16 36-16 15-37v-51h53q21 0 37-16t16-37-16-37-37-16h-104z m260 308q104-106 104-255t-104-255v-110q0-65-46-111t-111-46h-209q-65 0-111 46t-46 111v110q-104 106-104 255t104 255v110q0 65 46 111t111 46h209q65 0 111-46t46-111v-110z m-416 110v-95q75 43 156 43t156-43v95q0 21-16 36t-37 15h-209q-21 0-36-15t-15-36z m313-730v95q-75-43-156-43t-156 43v-95q0-21 15-36t36-15h209q21 0 37 15t16 36z m-156 105q108 0 184 76t76 184-76 184-184 76-184-76-77-184 77-184 184-76z" horiz-adv-x="729" />
<glyph glyph-name="stopwatch" unicode="&#xe0f4;" d="M855 537q83-118 83-265 0-194-138-331t-331-138-331 138-138 331q0 180 120 313t298 152v1l-1 3v51h-51q-21 0-37 16t-16 37 16 37 37 16h208q21 0 37-16t16-37-16-37-37-16h-51v-51l-1-1v-3q156-18 270-125 1 1 3 4t3 4l26 26q15 15 37 15t37-15 15-37-15-37l-26-26q-5-5-15-10z m-386-630q151 0 258 107t107 258-107 258-258 106-258-106-107-258 107-258 258-107z m53 416h104q21 0 37-15t16-36-16-37-37-16h-156q-21 0-37 16t-16 37v156q0 21 16 36t37 15 37-15 16-36v-105z m-53 261q129 0 221-92t92-221-92-221-221-92-221 92-92 221 92 221 221 92z m0-574q108 0 184 77t76 184-76 184-184 76-184-76-76-184 76-184 184-77z" horiz-adv-x="938" />
<glyph glyph-name="lightbulb" unicode="&#xe08f;" d="M390 663q64 0 109-46t46-109q0-11-8-19t-19-8-19 8-8 19q0 43-30 73t-73 30q-25 0-25 26t25 26z m0-860q-21 0-36 16t-15 37h-104q-21 0-37 16t-16 37v156q0 31-23 76t-90 143q-70 96-70 224 0 161 114 276t276 114 276-114 115-276q0-121-71-224-68-96-89-141t-22-78v-156q0-21-15-37t-36-16h-105q0-21-16-37t-37-16z m105 156v53h-209v-53h209z m130 383q53 76 53 165 0 118-84 202t-203 84q-118 0-202-84t-84-202q0-88 53-164 106-155 124-228h59v105q0 21 15 36t36 15 37-15 16-36v-105h58q16 71 125 226z" horiz-adv-x="781" />
<glyph glyph-name="block-outline" unicode="&#xe039;" d="M443-93q-183 0-313 130t-130 313 130 313 313 130 313-130 130-313-130-313-313-130z m0 781q-140 0-239-99t-99-239 99-239 239-99 239 99 99 239-99 239-239 99z m0-156q-21 0-31-3l211-213q3 10 3 33 0 75-54 129t-129 54z m0 53q96 0 166-69t69-166q0-65-36-124l-323 321q60 38 124 38z m-179-203q-4-15-4-33 0-75 54-129t129-54q23 0 33 3z m-19 93l323-323q-60-38-125-38-98 0-166 69t-68 166q0 66 36 125z" horiz-adv-x="885" />
<glyph glyph-name="block" unicode="&#x1f6ab;" d="M416 767q173 0 295-122t123-294-123-294-295-122-294 122-122 294 122 294 294 122z m-260-416q0-108 76-184t184-76q63 0 120 30l-350 350q-30-58-30-120z m490-120q31 60 31 120 0 108-77 184t-184 76q-61 0-119-30z" horiz-adv-x="834" />
<glyph glyph-name="resize-full-outline" unicode="&#xe011;" d="M613 845h378v-365q0-50-29-90t-76-56v-374h-364q-16-46-61-76t-96-29h-365v365q0 50 29 90t76 56q0 1-1 3t-1 3v369h363q16 46 56 75t90 29z m169-781v264q0 21-16 37t-37 16-36-16-15-37v-160h-156q-21 0-37-15t-16-36 16-37 37-16h260z m-573 573v-264q0-21 15-36t36-15 37 15 16 36v160h160q21 0 36 16t15 37-15 36-36 15h-264z m676-156v261h-260q-21 0-37-16t-16-37 16-37 37-16h83l-171-171q-15-15-15-37t15-37 36-15q23 0 38 15l171 171v-83q0-21 16-36t37-15 36 15 15 36z m-520-520q21 0 36 15t15 36-15 37-36 16h-83l171 171q15 15 15 37t-15 37-38 15q-21 0-36-15l-171-171v83q0 21-16 37t-37 16-37-16-16-37v-260h261z m51 416q43 0 74-31t31-73q0-28-16-54 6 1 19 1h101v108q0 1 1 5t1 6q-24-15-54-15-43 0-73 31t-31 74q0 28 15 53-1 0-5-1t-6-1h-108v-108q0-1-1-5t-1-6q24 15 53 15z" horiz-adv-x="990" />
<glyph glyph-name="resize-full" unicode="&#xe012;" d="M573 767h261v-260q0-21-16-37t-37-16-37 16-16 37v83l-171-171q-15-15-36-15-23 0-38 15t-15 37 15 37l171 171h-83q-21 0-36 16t-15 37 15 36 36 15z m-296-484q15 15 36 15t36-15 15-37-15-37l-171-171h83q21 0 37-16t16-37-16-36-37-15h-260v260q0 21 16 37t37 16 36-16 15-37v-83z m-120 68q-21 0-37 16t-16 37v260h261q21 0 36-16t15-37-15-36-36-15h-156v-156q0-21-16-37t-37-16z m521 0q21 0 36-16t15-37v-260h-260q-21 0-37 16t-16 37 16 36 37 15h156v156q0 21 16 37t37 16z" horiz-adv-x="834" />
<glyph glyph-name="resize-normal-outline" unicode="&#xe013;" d="M834 845q64 0 110-46t46-110-46-110l-46-46q40-44 40-104 0-71-56-119 4-16 4-35v-315h-309q-23 0-39 5-48-58-121-58-63 0-106 41l-46-48q-46-46-108-46-64 0-110 46t-46 110q0 65 46 111l49 49q-36 44-36 101 0 66 51 114-6 31-6 39v316h316q11 0 34-5 48 56 119 56 63 0 105-39l45 45q46 46 111 46z m-625-209v-208q0-21 15-37t36-16 37 16 16 37v104h104q21 0 37 16t16 37-16 36-37 15h-208z m661 16q15 15 15 36t-15 36q-16 16-36 16-21 0-38-16l-171-171v83q0 21-16 37t-37 16-36-16-15-37v-260h260q21 0 37 16t16 37-16 36-37 15h-83z m-401-589v260h-254q-21 0-37-15t-16-36 16-37 37-16h76l-171-171q-15-15-15-37t15-37 36-15q19 0 34 15l175 178v-89q0-21 15-37t36-16 37 16 16 37z m0 313v118q-28-14-49-14h-55v-51q0-26-15-53h119z m53-53v-120q26 16 55 16h49v55q0 40 38 49h-141z m3-208q0-21 16-37t37-16h205v209q0 21-16 36t-37 15-36-15-15-36v-105h-101q-21 0-37-15t-16-36z" horiz-adv-x="990" />
<glyph glyph-name="resize-normal" unicode="&#xe014;" d="M110 298h255v-260q0-23-13-38t-34-15-37 16-16 37v89l-178-178q-15-15-36-15-23 0-38 15t-15 37 15 37l171 171h-76q-21 0-36 16t-15 37 15 36 36 15z m46 105q-21 0-37 15t-16 36v209h209q21 0 37-16t16-37-16-36-37-15h-104v-105q0-21-16-36t-37-15z m521-105q21 0 36-15t15-36v-209h-208q-21 0-37 16t-16 37 16 36 37 15h104v105q0 21 16 36t37 15z m68 454q15 15 36 15t36-15 15-37-15-37l-171-171h83q21 0 37-16t16-37-16-36-37-15h-260v260q0 21 16 37t37 16 36-16 15-37v-83z" horiz-adv-x="833" />
<glyph glyph-name="move-outline" unicode="&#xe015;" d="M1160 424q31-30 31-73t-31-74l-491-490q-31-31-73-31-43 0-74 31l-491 490q-31 31-31 74t31 73l491 490q31 31 74 31 41 0 73-31z m-304-283q20 0 36 16l194 193-194 193q-16 16-36 16-21 0-38-16-15-15-15-36t15-36l68-68h-239v239l68-68q15-15 38-15 21 0 36 15t15 37-15 37l-193 193-194-193q-15-15-15-37t15-37 38-15q21 0 36 15l68 68v-239h-239l68 68q15 15 15 36t-15 36q-16 16-38 16-20 0-36-16l-194-193 194-193q16-16 36-16 21 0 38 16 15 15 15 36t-15 36l-68 68h239v-239l-68 68q-15 15-36 15-23 0-38-15t-15-37 15-37l194-193 193 193q15 15 15 37t-15 37-36 15q-23 0-38-15l-68-68v239h239l-68-68q-15-15-15-36t15-36q16-16 38-16z m-90 105h-66v-66q25 14 53 14 0 28 14 53z m-341 0q15-28 15-53 26 0 51-14v66h-66z m0 208h66v66q-25-14-51-14 0-25-15-53z m341 0q-14 25-14 53-28 0-53 14v-66h66z" horiz-adv-x="1191" />
<glyph glyph-name="move" unicode="&#xe016;" d="M788 543l193-193-193-193q-16-16-36-16-21 0-38 16-15 15-15 36t15 36l68 68h-239v-239l68 68q15 15 37 15t37-15 15-37-15-37l-194-193-193 193q-15 15-15 37t15 37 37 15 37-15l68-68v239h-239l66-68q15-15 15-36t-15-36q-16-16-36-16-21 0-38 16l-193 193 193 193q15 15 37 15t37-15 15-36-15-36l-66-68h239v239l-68-68q-15-15-37-15t-37 15-15 37 15 37l193 193 194-193q15-15 15-37t-15-37-38-15q-21 0-36 15l-68 68v-239h239l-68 68q-15 15-15 36t15 36 37 15 37-15z" horiz-adv-x="980" />
<glyph glyph-name="popup" unicode="&#xe0f6;" d="M781 793q44 0 74-31t30-73v-521q0-44-30-74t-74-30h-104v-53q0-43-31-73t-74-31h-469q-44 0-74 31t-30 73v469q0 44 31 74t73 31h53v104q0 43 31 73t73 31h521z m-678-781h469v443q0 10-8 18t-18 8h-444v-469z m678 156v521h-521v-156h288q31 0 54-23t23-56v-286h156z" horiz-adv-x="885" />
<glyph glyph-name="zoom-in-outline" unicode="&#xe12e;" d="M495 450q10 0 18-8t8-18-8-18-18-8h-105v-104q0-10-8-18t-18-8-18 8-8 18v104h-104q-10 0-18 8t-8 18 8 18 18 8h104v104q0 10 8 18t18 8 18-8 8-18v-104h105z m333-259q48-48 48-115t-48-116-115-48q-61 0-110 41l-125 124q-60-19-113-19-151 0-258 107t-107 258 107 258 258 106 258-106 106-258q0-54-19-114z m-204 58q-34-51-85-85l131-130q19-16 43-16 25 0 42 18t17 41q0 26-18 41z m-520 175q0-108 77-184t184-77 184 77 76 184-76 184-184 76-184-76-77-184z" horiz-adv-x="875" />
<glyph glyph-name="zoom-in" unicode="&#xe12f;" d="M495 450q11 0 19-8t8-19-8-19-19-8h-105v-104q0-26-25-26-11 0-19 8t-8 19v104h-105q-25 0-25 26t25 26h105v104q0 11 8 19t19 8q25 0 25-26v-104h105z m255-179q13-13 38-39t39-41q48-48 48-115t-48-116-115-48q-69 0-116 48l-118 118q-60-19-114-19-151 0-258 107t-107 258 107 258 258 106 258-106 106-258q0-58-18-114z m-646 153q0-108 77-184t184-77 184 77 76 184-76 184-184 76-184-76-77-184z" horiz-adv-x="875" />
<glyph glyph-name="zoom-out-outline" unicode="&#xe130;" d="M495 398h-260q-10 0-18 8t-8 18 8 18 18 8h260q10 0 18-8t8-18-8-18-18-8z m333-206q48-48 48-115t-48-116-115-48q-61 0-110 41l-125 124q-60-19-113-19-151 0-258 107t-107 258 107 258 258 106 258-106 106-258q0-59-19-114z m-204 58q-34-51-85-85l131-130q19-16 43-16 25 0 42 18t17 41q0 26-18 41z m-520 175q0-108 77-184t184-77 184 77 76 184-76 184-184 76-184-76-77-184z" horiz-adv-x="875" />
<glyph glyph-name="zoom-out" unicode="&#xe131;" d="M495 450q11 0 19-8t8-19-8-19-19-8h-260q-11 0-19 8t-8 19 8 19 19 8h260z m333-259q48-48 48-115t-48-116-115-48q-71 0-116 48l-118 118q-60-19-114-19-151 0-258 107t-107 258 107 258 258 106 258-106 106-258q0-58-18-114 11-11 33-34t33-34z m-724 233q0-108 77-184t184-77 184 77 76 184-76 184-184 76-184-76-77-184z" horiz-adv-x="875" />
<glyph glyph-name="popup" unicode="&#xe02f;" d="M781 793q44 0 74-31t30-73v-521q0-44-30-74t-74-30h-104v-53q0-43-31-73t-74-31h-469q-44 0-74 31t-30 73v469q0 44 31 74t73 31h53v104q0 43 31 73t73 31h521z m-678-781h469v443q0 10-8 18t-18 8h-444v-469z m678 156v521h-521v-156h288q31 0 54-23t23-56v-286h156z" horiz-adv-x="885" />
<glyph glyph-name="left-open-outline" unicode="&#xe043;" d="M638 91q0-64-46-110t-110-46q-65 0-110 45l-371 371 371 371q44 44 111 44t111-44q45-45 45-111 0-65-45-110l-150-150 150-150q45-45 45-110z m-490 260l298-298q15-15 37-15t37 15 15 38q0 21-15 36l-224 224 224 224q15 15 15 36 0 23-15 38t-37 15-37-15z" horiz-adv-x="638" />
<glyph glyph-name="left-open" unicode="&#xe044;" d="M481 684q31-31 31-74t-31-74l-186-186 186-186q31-31 31-74t-31-74-74-31-74 31l-334 334 334 334q30 31 74 31t74-31z" horiz-adv-x="513" />
<glyph glyph-name="right-open-outline" unicode="&#xe045;" d="M156-66q-64 0-110 46t-46 110 46 110l150 150-150 150q-46 46-46 110 0 65 46 111 44 44 110 44t110-44l371-371-371-371q-45-45-110-45z m0 729q-21 0-37-16t-16-37q0-20 16-36l223-224-223-224q-16-16-16-36 0-21 16-38 15-15 36-15t36 15l298 298-298 298q-15 15-36 15z" horiz-adv-x="638" />
<glyph glyph-name="right-open" unicode="&#xe046;" d="M31 684q30 31 74 31t74-31l335-334-335-334q-31-31-74-31t-74 31-31 74 31 74l188 186-188 186q-31 31-31 74t31 74z" horiz-adv-x="514" />
<glyph glyph-name="down" unicode="&#xe008;" d="M700 391q31-31 31-74t-31-74l-334-334-335 334q-31 31-31 74t31 74 74 31 74-31l83-83v378q0 43 31 73t74 31q43 0 73-31t31-73v-378l83 83q31 31 74 31t74-31z" horiz-adv-x="731" />
<glyph glyph-name="left" unicode="&#xe00d;" d="M776 454q43 0 73-31t31-74q0-43-30-73t-74-31h-378l83-83q31-30 31-73t-31-74q-30-30-74-30t-74 30l-334 334 334 335q31 31 74 31t74-31q31-30 31-73t-31-74l-83-83h378z" horiz-adv-x="880" />
<glyph glyph-name="right" unicode="&#xe01a;" d="M399 684q31 31 74 31t74-31l334-335-334-334q-30-30-74-30t-74 30q-31 31-31 74t31 73l83 83h-378q-44 0-74 31t-30 73q0 44 31 74t73 31h378l-83 83q-31 31-31 74t31 73z" horiz-adv-x="880" />
<glyph glyph-name="up" unicode="&#xe020;" d="M366 790l334-334q31-31 31-74t-31-74-74-31-74 31l-83 83v-378q0-44-31-74t-73-30q-44 0-74 31t-31 73v378l-83-83q-31-31-74-31t-74 31-31 74 31 74z" horiz-adv-x="731" />
<glyph glyph-name="down-outline" unicode="&#xe007;" d="M416-153l-370 371q-46 46-46 110t46 110q43 43 106 44t108-38v253q0 65 46 111t111 46 111-46 46-111v-253q45 40 109 38t106-44q46-46 46-110t-46-110z m-260 534q-23 0-38-15t-15-37 15-37l298-298 298 298q15 15 15 37t-15 37-37 15-37-15l-171-173v504q0 21-16 36t-37 15-36-15-15-36v-504l-173 173q-15 15-36 15z" horiz-adv-x="834" />
<glyph glyph-name="left-outline" unicode="&#xe00c;" d="M638 91q0-64-46-110t-110-46-110 46l-371 370 371 371q44 44 110 44t110-44q46-46 46-110 0-61-40-105h253q65 0 111-46t46-111-46-111-111-46h-253q40-44 40-104z m-490 260l298-296q15-15 37-15t37 15 15 36-15 36l-173 173h504q21 0 36 15t15 36-15 37-36 16h-504l173 171q15 15 15 38 0 21-15 36t-37 15-37-15z" horiz-adv-x="1006" />
<glyph glyph-name="right-outline" unicode="&#xe019;" d="M525-66q-64 0-110 46t-46 110q0 11 1 20t5 19 7 16 11 22 14 27h-251q-65 0-111 46t-46 111 46 111 111 46h251q-5 11-14 27t-12 22-7 17-5 19-1 20q0 65 45 110 44 44 111 44t111-44l371-371-371-370q-46-46-110-46z m-369 469q-21 0-37-16t-16-37 16-36 37-15h503l-171-173q-15-15-15-36t15-36 37-15 37 15l298 296-298 298q-15 15-37 15t-37-15-15-36q0-23 15-38l171-171h-503z" horiz-adv-x="1006" />
<glyph glyph-name="up-outline" unicode="&#xe01f;" d="M416-151q-65 0-111 46t-46 111v248q-45-40-108-38t-106 44q-46 46-46 111t46 111l370 371 371-371q46-46 46-111t-46-111q-43-43-106-44t-109 38v-248q0-65-46-111t-111-46z m-51 655v-499q0-21 15-37t36-16 37 16 16 37v499l171-171q15-15 37-15t37 15 15 37-15 37l-298 298-298-298q-15-15-15-37t15-37 37-15 37 15z" horiz-adv-x="834" />
<glyph glyph-name="down-small" unicode="&#xe009;" d="M505 346q15-15 15-37t-15-37l-245-245-245 245q-15 15-15 37t15 37 37 15 37-15l120-119v395q0 21 15 36t36 15 37-15 16-36v-395l120 119q15 15 36 15t36-15z" horiz-adv-x="520" />
<glyph glyph-name="left-small" unicode="&#xe00e;" d="M595 403q21 0 36-16t15-37-15-37-36-16h-395l119-119q15-15 15-37t-15-37-36-15q-23 0-38 15l-245 245 245 245q15 15 37 15t37-15 15-37-15-37l-119-119h395z" horiz-adv-x="646" />
<glyph glyph-name="right-small" unicode="&#xe01b;" d="M328 595q15 15 37 15t37-15l245-245-245-245q-15-15-36-15-23 0-38 15t-15 37 15 37l120 119h-395q-21 0-37 16t-16 37 16 37 37 16h395l-120 119q-15 15-15 37t15 37z" horiz-adv-x="646" />
<glyph glyph-name="up-small" unicode="&#xe021;" d="M260 673l245-245q15-15 15-37t-15-37-36-15-36 15l-120 120v-395q0-21-16-37t-37-16-36 16-15 37v395l-120-120q-15-15-37-15t-37 15-15 37 15 37z" horiz-adv-x="520" />
<glyph glyph-name="cw-outline" unicode="&#xe0cb;" d="M696 767q54 0 95-41t43-119v-258q0-180-123-298t-295-118-294 122-122 294 122 295 294 123q93 0 179-40 49 40 101 40z m-471-426q0 74 54 128t128 54q58 0 100-28l-76-74q-31-31-21-51t54-20h266v258q0 55-33 55-20 0-44-24l-60-60q-81 64-186 64-125 0-214-89-88-88-88-214t88-214q89-89 214-89t214 89q25 25 41 50 19 29 2 61t-53 33q-33 0-50-28-24-36-66-60t-88-24q-74 0-128 54t-54 128z m53 0q0-54 38-91t91-38q53 0 91 39 10 10 18 22t12 19l3 6h-68q-81 0-103 49-20 48 34 101l13 6q-60 0-91-31-38-36-38-83z" horiz-adv-x="834" />
<glyph glyph-name="cw" unicode="&#x27f3;" d="M121 340q0-74 54-128t128-54q46 0 88 23t65 61q13 20 38 26t46-8q21-14 26-38t-8-45q-18-28-41-51-89-89-214-89t-214 89-89 214 89 214 214 89q105 0 186-64l60 60q31 31 54 22t23-53v-268h-268q-44 0-53 23t22 54l76 76q-44 29-100 29-74 0-128-54t-54-128z" horiz-adv-x="625" />
<glyph glyph-name="arrows-cw-outline" unicode="&#xe01d;" d="M286 845q0 64 46 110t110 46q65 0 111-46l241-241q31-11 56-36 139-139 139-326 0-205-145-350-68-66-148-103 5-19 5-44 0-64-46-110t-109-46q-65 0-111 46l-244 244q-30 11-54 35-139 139-139 326 0 205 145 350 68 68 148 103-6 23-6 43z m228-884q149 5 258 114 114 114 114 276 0 145-108 253-15 15-36 15-23 0-38-15t-15-37 15-37q43-43 60-83t18-96q0-119-84-203-75-75-179-83l65 65q15 15 15 37t-15 37-36 15q-23 0-38-15l-193-194 193-193q15-15 38-15 21 0 36 15t15 37-15 37z m-40 779q-149-8-255-114-115-115-115-276 0-145 108-253 15-15 38-15 21 0 36 15t15 37-15 37q-43 43-59 83t-17 96q0 119 84 203 76 76 180 84l-66-68q-15-15-15-36t15-36q16-16 36-16 21 0 38 16l193 193-193 193q-16 16-38 16-20 0-36-16-15-15-15-36t15-36z m-135-215q-79-71-79-175 0-45 14-76t49-66q38-38 29-89l123 121q31 31 74 31 41 0 71-28t33-68q78 71 78 175 0 45-13 76t-48 66-29 88l-123-123q-30-30-74-30-41 0-71 28t-33 68z" horiz-adv-x="990" />
<glyph glyph-name="arrows-cw" unicode="&#xe01e;" d="M781 352q0-161-115-276-109-109-256-114l70-69q15-15 15-37t-15-37-38-15q-21 0-36 15l-194 193 194 194q15 15 37 15t37-15 15-37-15-37l-65-65q104 8 179 83 84 84 84 203 0 55-18 96t-60 83q-15 15-15 37t15 37 37 15 37-15q108-108 108-253z m-678-1q0-55 18-96t60-83q15-15 15-37t-15-37-36-15q-23 0-38 15-108 108-108 253 0 161 115 276 106 106 255 114l-69 69q-15 15-15 36t15 36 37 15 37-15l194-193-194-193q-16-16-36-16-21 0-38 16-15 15-15 36t15 36l66 68q-104-8-180-84-84-84-84-203z" horiz-adv-x="781" />
<glyph glyph-name="loop-outline" unicode="&#xe017;" d="M781 871q64 0 110-46t46-110v-9q113-29 186-128t74-228q0-151-106-258t-258-107h-53q-60 0-104 40l-150-150q-46-46-111-46-64 0-110 46t-46 110q0 1 1 5t1 5q-113 29-187 128t-74 227q0 151 107 258t258 106h51q60 0 104-40l151 151q45 45 110 45z m53-781q108 0 184 77t76 184-69 184-165 76h-109l66 68q15 15 15 37t-15 37-36 15-36-15l-194-194 194-193q15-15 36-15t36 15 15 37-15 37l-66 68h109q54 0 92-46t38-111-46-111-111-46h-53q-21 0-37-16t-16-37 16-37 37-16h53z m-521 209q0 43 31 73t73 31q44 0 74-30l194-194q11 30 38 49t60 19h53q43 0 73 31t31 74q0 38-19 67t-46 36q13-21 13-51 0-43-31-73t-73-31q-44 0-74 30l-194 194q-11-30-38-49t-60-19h-51q-44 0-74-31t-31-73q0-38 19-67t46-36q-13 21-13 50z m156 260q0 21-16 37t-37 16h-51q-108 0-184-76t-77-184 69-184 166-77h109l-68-68q-15-15-15-36t15-36q16-16 36-16 21 0 38 16l193 193-193 193q-16 16-38 16-20 0-36-16-15-15-15-36t15-36l68-68h-109q-54 0-92 46t-38 111 46 111 111 46h51q21 0 37 15t16 36z" horiz-adv-x="1198" />
<glyph glyph-name="loop" unicode="&#x1f501;" d="M703 610q96 0 166-76t69-184-76-184-184-76q-21 0-37 15t-16 36 16 37 37 16q65 0 111 46t46 111-39 111-93 46h-108l66-68q15-15 15-37t-15-37-36-15-36 15l-194 194 194 193q15 15 36 15t36-15 15-37-15-37l-66-68h108z m-426-275q15 15 36 15t36-15l194-194-194-193q-15-15-36-15t-36 15-15 37 15 37l66 68h-108q-96 0-166 76t-69 184 76 184 184 76q21 0 37-15t16-36-16-37-37-16q-65 0-111-46t-46-111 39-111 93-46h108l-66 68q-15 15-15 37t15 37z" horiz-adv-x="938" />
<glyph glyph-name="loop-alt-outline" unicode="&#xe00f;" d="M781 793q64 0 110-46t46-110v-9q113-29 186-128t74-228q0-151-106-258t-258-107h-469q-151 0-258 107t-107 258 107 258 258 106h51q61 0 104-39l151 150q45 45 110 45z m53-781q108 0 184 77t76 184-69 184-165 76h-109l66 68q15 15 15 37t-15 37-36 15-36-15l-194-194 194-193q15-15 36-15t36 15 15 37-15 37l-66 68h109q54 0 92-46t38-111-46-111-111-46h-469q-65 0-111 46t-46 111 46 111 111 46h51q21 0 37 15t16 36-16 37-37 16h-51q-108 0-184-76t-77-184 77-184 184-77h469z m51 313q0-43-31-73t-73-31q-44 0-74 30l-194 194q-11-30-38-49t-60-19h-51q-44 0-74-31t-31-73q0-44 31-74t74-31h469q43 0 73 31t31 74q0 38-19 67t-46 36q13-21 13-51z" horiz-adv-x="1198" />
<glyph glyph-name="loop-alt" unicode="&#xe010;" d="M703 533q96 0 166-77t69-184-76-184-184-76h-418q-108 0-184 76t-76 184 76 184 184 77q21 0 37-16t16-37-16-37-37-16q-65 0-111-46t-46-111 46-111 111-46h418q65 0 111 46t46 111-39 111-93 46h-108l66-68q15-15 15-36t-15-36q-16-16-36-16t-36 16l-194 193 194 193q15 15 36 15t36-15 15-36-15-36l-66-68h108z" horiz-adv-x="938" />
<glyph glyph-name="shuffle" unicode="&#x1f500;" d="M53 533q-21 0-37 16t-16 37 16 36 37 15h183q91 0 158-69-33-35-61-88-40 53-96 53h-183z m400-163l-25-73q-33-100-103-167t-143-67h-130q-21 0-37 16t-16 37 16 36 37 15h130q33 0 78 46t69 116l25 74q33 99 116 166t173 67h95l-66 68q-15 15-15 37t15 37 37 15 37-15l193-193-193-194q-15-15-38-15-21 0-36 15t-15 37 15 37l66 68h-95q-54 0-111-49t-79-114z m219-61q15 15 37 15t37-15l193-193-193-194q-15-15-38-15-21 0-36 15t-15 37 15 37l66 68h-121q-119 0-196 100 35 53 56 114 14-49 53-79t88-31h121l-66 68q-15 15-15 37t15 37z" horiz-adv-x="938" />
<glyph glyph-name="play-outline" unicode="&#xe0a2;" d="M104 610v-520q1 0 1 1t1 1l265 259-263 256-3 3t-3 1z m0 105q44 0 74-30l344-335q-208-201-345-335-30-30-73-30t-73 31-31 74v520q0 44 31 74t73 31z" horiz-adv-x="521" />
<glyph glyph-name="play" unicode="&#xe0a3;" d="M178 15q-30-30-74-30-43 0-73 31t-31 74v520q0 44 31 74t73 31q44 0 74-30l344-335q-206-201-344-335z" horiz-adv-x="521" />
<glyph glyph-name="stop-outline" unicode="&#xe0a8;" d="M521 559h-418v-418h418v418z m0 104q44 0 74-30t30-74v-418q0-44-30-74t-74-30h-418q-44 0-74 30t-30 74v418q0 44 30 74t74 30h418z" horiz-adv-x="625" />
<glyph glyph-name="stop" unicode="&#xe0a9;" d="M521 663q44 0 74-30t30-74v-418q0-44-30-74t-74-30h-418q-44 0-74 30t-30 74v418q0 44 30 74t74 30h418z" horiz-adv-x="625" />
<glyph glyph-name="pause-outline" unicode="&#xe0a0;" d="M156-41q-65 0-111 46t-46 111v469q0 65 46 111t111 46 111-46 46-111v-469q0-65-46-111t-111-46z m0 676q-21 0-37-15t-16-36v-469q0-21 16-37t37-16 37 16 16 37v469q0 21-16 36t-37 15z m365-676q-65 0-111 46t-46 111v469q0 65 46 111t111 46 111-46 46-111v-469q0-65-46-111t-111-46z m0 676q-21 0-37-15t-16-36v-469q0-21 16-37t37-16 36 16 15 37v469q0 21-15 36t-36 15z" horiz-adv-x="678" />
<glyph glyph-name="pause" unicode="&#xe0a1;" d="M104 663q44 0 74-31t31-73v-418q0-43-31-73t-74-31-74 30-30 74v418q0 44 30 74t74 30z m365 0q44 0 74-30t30-74v-418q0-44-30-74t-74-30-74 30-30 74v418q0 44 30 74t74 30z" horiz-adv-x="573" />
<glyph glyph-name="fast-fw-outline" unicode="&#xe09e;" d="M573 559v-419l216 210z m-10 119q36 0 65-26l310-301q-186-181-310-301-28-28-65-28-39 0-66 28t-28 66v469q0 39 28 66t66 28z m-459-119v-419l216 210z m-10 119q36 0 65-26l310-301q-186-181-310-301-28-28-65-28-39 0-66 28t-28 66v469q0 39 28 66t66 28z" horiz-adv-x="938" />
<glyph glyph-name="fast-fw" unicode="&#xe09f;" d="M628 652l310-301q-186-181-310-301-28-28-65-28-39 0-66 28t-28 66v469q0 39 28 66t66 28q36 0 65-26z m-469 0l310-301q-186-181-310-301-28-28-65-28-39 0-66 28t-28 66v469q0 39 28 66t66 28q36 0 65-26z" horiz-adv-x="938" />
<glyph glyph-name="rewind-outline" unicode="&#xe0a6;" d="M365 559l-216-209 216-210v419z m10 119q39 0 66-28t28-66v-469q0-39-28-66t-66-28q-35 0-65 28l-310 301q186 181 310 301 26 26 65 26z m459-119l-216-209 216-210v419z m10 119q39 0 66-28t28-66v-469q0-39-28-66t-66-28q-35 0-65 28l-310 301q186 181 310 301 26 26 65 26z" horiz-adv-x="938" />
<glyph glyph-name="rewind" unicode="&#xe0a7;" d="M375 678q39 0 66-28t28-66v-469q0-39-28-66t-66-28q-35 0-65 28l-310 301q186 181 310 301 26 26 65 26z m469 0q39 0 66-28t28-66v-469q0-39-28-66t-66-28q-35 0-65 28l-310 301q186 181 310 301 26 26 65 26z" horiz-adv-x="938" />
<glyph glyph-name="record-outline" unicode="&#xe0a4;" d="M313 559q-86 0-148-61t-61-148 61-148 148-61 148 61 61 148-61 148-148 61z m0 104q130 0 221-91t91-221-91-221-221-91-221 91-91 221 91 221 221 91z" horiz-adv-x="625" />
<glyph glyph-name="record" unicode="&#xe0a5;" d="M313 663q130 0 221-91t91-221-91-221-221-91-221 91-91 221 91 221 221 91z" horiz-adv-x="625" />
<glyph glyph-name="eject-outline" unicode="&#xe063;" d="M625 608q114-34 186-127t72-216q0-150-108-254t-261-104q-123 0-221 74t-133 188h-56q-44 0-74 30t-30 74v521h521q43 0 73-31t31-74v-80z m-416-98l250-250q15-15 36-15 23 0 38 15t15 37-15 37l-250 250h169q21 0 36 16t15 37-15 36-36 15h-348v-346q0-21 16-37t37-16 37 16 16 37v169z m313-501q108 0 184 76t76 183-76 183-184 75q-38 0-86-20l134-134q31-31 31-74t-31-73q-31-31-74-31t-74 31l-150 150q-11-31-11-104 0-108 77-184t184-77z" horiz-adv-x="883" />
<glyph glyph-name="eject" unicode="&#xe064;" d="M469 51q96 0 165 69t69 165-69 166-165 69q-21 0-37 16t-16 37 16 36 37 15q140 0 239-99t99-239-99-239-239-99-239 99-99 239q0 21 16 37t37 16 37-16 16-37q0-96 69-165t165-69z m-123 703q21 0 37-15t16-36-16-37-37-16h-169l303-303q15-15 15-37t-15-37-38-15q-21 0-36 15l-303 303v-169q0-21-15-37t-36-16-37 16-16 37v346h346z" horiz-adv-x="808" />
<glyph glyph-name="eject-alt-outline" unicode="&#xe09c;" d="M573-93h-416q-65 0-111 46t-46 111 46 111 111 46h416q65 0 111-46t46-111-46-111-111-46z m-416 209q-21 0-37-16t-16-37 16-37 37-16h416q21 0 37 16t16 37-16 37-37 16h-416z m209 528l-256-264-3-3t-3-1h521l-1 1-1 1z m0 149q201-206 335-344 29-29 29-73 0-43-31-73t-73-31h-521q-44 0-74 31t-30 73 30 73z" horiz-adv-x="729" />
<glyph glyph-name="eject-alt" unicode="&#xe09d;" d="M625 142q43 0 73-31t31-73-31-73-73-31h-521q-44 0-74 31t-30 73 30 73 74 31h521z m75 281q29-29 29-73 0-43-31-73t-73-31h-521q-44 0-74 31t-30 73 30 73l335 344q201-206 335-344z" horiz-adv-x="729" />
<glyph glyph-name="bat1" unicode="&#xe02a;" d="M209 194q-21 0-37 16t-16 37v209q0 21 16 36t37 15 36-15 15-36v-209q0-21-15-37t-36-16z m676 313q44 0 74-31t31-73v-104q0-44-31-74t-74-31q0-65-46-111t-111-46h-573q-65 0-111 46t-46 111v313q0 65 46 111t111 46h573q65 0 111-46t46-111z m-104-313v313q0 21-16 37t-37 16h-573q-21 0-37-16t-16-37v-313q0-21 16-36t37-15h573q21 0 37 15t16 36z" horiz-adv-x="990" />
<glyph glyph-name="bat2" unicode="&#xe02b;" d="M365 194q-21 0-37 16t-16 37v209q0 21 16 36t37 15 36-15 15-36v-209q0-21-15-37t-36-16z m-156 0q-21 0-37 16t-16 37v209q0 21 16 36t37 15 36-15 15-36v-209q0-21-15-37t-36-16z m676 313q44 0 74-31t31-73v-104q0-44-31-74t-74-31q0-65-46-111t-111-46h-573q-65 0-111 46t-46 111v313q0 65 46 111t111 46h573q65 0 111-46t46-111z m-104-313v313q0 21-16 37t-37 16h-573q-21 0-37-16t-16-37v-313q0-21 16-36t37-15h573q21 0 37 15t16 36z" horiz-adv-x="990" />
<glyph glyph-name="bat3" unicode="&#xe029;" d="M365 194q-21 0-37 16t-16 37v209q0 21 16 36t37 15 36-15 15-36v-209q0-21-15-37t-36-16z m-156 0q-21 0-37 16t-16 37v209q0 21 16 36t37 15 36-15 15-36v-209q0-21-15-37t-36-16z m313 0q-21 0-37 16t-16 37v209q0 21 16 36t37 15 36-15 15-36v-209q0-21-15-37t-36-16z m364 313q44 0 74-31t31-73v-104q0-44-31-74t-74-31q0-65-46-111t-111-46h-573q-65 0-111 46t-46 111v313q0 65 46 111t111 46h573q65 0 111-46t46-111z m-104-313v313q0 21-16 37t-37 16h-573q-21 0-37-16t-16-37v-313q0-21 16-36t37-15h573q21 0 37 15t16 36z" horiz-adv-x="990" />
<glyph glyph-name="bat4" unicode="&#xe028;" d="M365 194q-21 0-37 16t-16 37v209q0 21 16 36t37 15 36-15 15-36v-209q0-21-15-37t-36-16z m-156 0q-21 0-37 16t-16 37v209q0 21 16 36t37 15 36-15 15-36v-209q0-21-15-37t-36-16z m469 0q-21 0-37 16t-16 37v209q0 21 16 36t37 15 36-15 15-36v-209q0-21-15-37t-36-16z m-156 0q-21 0-37 16t-16 37v209q0 21 16 36t37 15 36-15 15-36v-209q0-21-15-37t-36-16z m364 313q44 0 74-31t31-73v-104q0-44-31-74t-74-31q0-65-46-111t-111-46h-573q-65 0-111 46t-46 111v313q0 65 46 111t111 46h573q65 0 111-46t46-111z m-104-313v313q0 21-16 37t-37 16h-573q-21 0-37-16t-16-37v-313q0-21 16-36t37-15h573q21 0 37 15t16 36z" horiz-adv-x="990" />
<glyph glyph-name="bat-charge" unicode="&#xe027;" d="M156 506h573v-313h-573v313z m304-255l165 121-135-23-61 99-169-121 138 23z m425 255q44 0 74-31t31-73v-104q0-44-31-74t-74-31q0-65-46-111t-111-46h-573q-65 0-111 46t-46 111v313q0 65 46 111t111 46h573q65 0 111-46t46-111z m-104-313v313q0 21-16 37t-37 16h-573q-21 0-37-16t-16-37v-313q0-21 16-36t37-15h573q21 0 37 15t16 36z" horiz-adv-x="990" />
<glyph glyph-name="plug" unicode="&#xe0bf;" d="M365 64q-151 0-258 106t-107 258h104q0-108 77-184t184-76 184 76 76 184h104q0-151-106-258t-258-106z m313 286q-21 0-37 16t-16 37v156h-521v-156q0-21-15-37t-36-16-37 16-16 37v208q0 21 16 37t37 16h625q21 0 36-16t15-37v-208q0-21-15-37t-36-16z m-418 469h-104v-156h104v156z m0 53q21 0 37-16t16-37v-156q0-21-16-37t-37-16h-104q-21 0-37 16t-16 37v156q0 21 16 37t37 16h104z m156-808h-104v-130h104v130z m0 104q44 0 74-31t31-73v-130q0-44-31-74t-74-31h-104q-43 0-73 31t-31 74v130q0 44 31 74t73 30h104z m156 651h-104v-156h104v156z m0 53q21 0 37-16t16-37v-156q0-21-16-37t-37-16h-104q-21 0-37 16t-16 37v156q0 21 16 37t37 16h104z m105-521h-625q-11 0-19 8t-8 19 8 19 19 8h625q25 0 25-26t-25-26z m-313-235q-25 0-53 6v-84h104v84q-28-6-51-6z m-156-78v104h51v-104h-51z m260 0v104h53v-104h-53z" horiz-adv-x="729" />
<glyph glyph-name="target-outline" unicode="&#xe0c9;" d="M443 793q183 0 313-130t130-313-130-313-313-130-313 130-130 313 130 313 313 130z m0-780q140 0 239 99t99 239-99 239-239 99-239-99-99-239 99-239 239-99z m183 390q-21 0-37-16t-16-37 16-36 37-15h46q-15-66-63-114t-113-63v45q0 21-16 37t-37 16-37-16-16-37v-45q-65 15-113 63t-63 114h45q21 0 37 15t16 36-16 37-37 16h-45q15 66 63 114t113 63v-46q0-21 16-37t37-16 37 16 16 37v46q65-15 113-63t63-113h-46z m-31-151q-33 10-53 38t-20 61 20 61 53 38q-21 31-53 53-10-33-38-53t-61-20-61 20-38 53q-31-21-53-53 33-10 53-38t21-61-21-61-53-38q19-30 53-51 10 33 38 53t61 20 61-20 38-53q34 21 53 51z" horiz-adv-x="885" />
<glyph glyph-name="target" unicode="&#x1f3af;" d="M365-14q-151 0-258 106t-107 258 107 258 258 107 258-107 106-258-106-258-258-106z m-53 619q-78-16-132-71t-71-132h99q21 0 36-16t15-37-15-36-36-15h-99q16-78 71-133t131-71v99q0 21 16 37t37 16 36-16 15-37v-99q76 16 132 71t72 133h-99q-21 0-37 15t-16 36 16 37 37 16h99q-16 76-71 131t-133 71v-99q0-21-15-36t-36-15-37 15-16 36v99z" horiz-adv-x="729" />
<glyph glyph-name="wifi-outline" unicode="&#xe129;" d="M954 446q0-80-55-135l-290-295q-30-31-59-41t-72-10q-81 0-138 63-279 280-300 301-16 16-28 49t-12 64q0 60 36 109 29 31 39 39 174 146 402 146t402-146q16-13 28-25 48-45 48-118z m-476-378q33 0 55 23t23 55-23 56-55 23-56-23-23-56 23-55 56-23z m203 170q23 23 23 56t-23 56q-84 84-203 84t-203-84q-23-23-23-56t23-56 56-23 56 23q39 39 92 39t92-39q23-23 55-23 34 0 56 23z m146 148q23 23 23 56t-23 56q-144 144-349 144t-350-144q-23-23-23-56t23-56 55-23 55 23q100 100 240 100t239-100q23-23 55-23t55 23z" horiz-adv-x="954" />
<glyph glyph-name="wifi" unicode="&#xe12a;" d="M621-36q-30-31-73-31t-74 31-31 73 31 74q30 31 73 31t74-31q31-30 31-74t-31-74z m368 411q-41 0-73 31-153 151-369 151t-369-151q-31-31-74-31t-74 31q-31 31-31 73t31 73q140 140 328 189t376 0 328-189q31-31 31-73t-31-73-74-31z m-663-221q-43 0-74 31t-31 74 31 74q80 80 188 108t215 0 188-108q31-31 31-74t-31-74-74-31-74 31q-61 61-148 61t-148-61q-31-31-74-31z" horiz-adv-x="1094" />
<glyph glyph-name="desktop" unicode="&#xe055;" d="M1094 897q65 0 111-46t46-111v-573q0-65-46-111t-111-46h-313v-104h156q21 0 37-16t16-37-16-37-37-16h-625q-21 0-37 16t-16 37 16 37 37 16h156v104h-313q-65 0-111 46t-46 111v573q0 65 46 111t111 46h938z m-365-989v104h-208v-104h208z m418 260v573q0 21-16 37t-37 16h-938q-21 0-37-16t-16-37v-573q0-21 16-37t37-16h938q21 0 37 16t16 37z m-105 573q21 0 37-15t16-36v-418q0-21-16-36t-37-15h-833q-21 0-37 15t-16 36v418q0 21 16 36t37 15h833z m0-469v418h-833v-418h833z" horiz-adv-x="1250" />
<glyph glyph-name="laptop" unicode="&#xe056;" d="M1145 139q45-10 75-46t30-82q0-54-38-92t-92-38h-990q-54 0-92 38t-38 92q0 46 30 82t75 46q0 8-1 26t-1 29v469q0 65 46 111t111 46h730q65 0 111-46t46-111v-469q0-10-1-29t-1-26z m-936 524v-469q0-11 1-29t1-24h50v469q0 21 16 37t37 16h625q21 0 37-16t16-37v-469h51v521q0 21-15 37t-36 16h-730q-21 0-36-16t-15-37z m729-521v469h-625v-469h625z m183-156q10 0 18 8t8 18-8 18-18 8h-990q-10 0-18-8t-8-18 8-18 18-8h990z" horiz-adv-x="1250" />
<glyph glyph-name="tablet" unicode="&#xe058;" d="M678 741q21 0 36-15t15-36v-625q0-21-15-37t-36-16h-183q0-21-16-37t-37-16-37 16-16 37h-181q-21 0-37 16t-16 37v625q0 21 16 36t37 15h469z m0-676v625h-469v-625h469z m51 833q65 0 111-46t46-111v-781q0-65-46-111t-111-46h-573q-65 0-111 46t-46 111v781q0 65 46 111t111 46h573z m53-938v781q0 21-16 37t-37 16h-573q-21 0-37-16t-16-37v-781q0-21 16-36t37-15h573q21 0 37 15t16 36z" horiz-adv-x="885" />
<glyph glyph-name="mobile" unicode="&#x1f4f1;" d="M521 819q65 0 111-46t46-111v-625q0-65-46-111t-111-46h-365q-65 0-111 46t-46 111v625q0 65 46 111t111 46h365z m51-781v625q0 21-15 37t-36 16h-365q-21 0-37-16t-16-37v-625q0-21 16-37t37-16h365q21 0 36 16t15 37z m-104 625q21 0 37-16t16-37v-469q0-21-16-36t-37-15h-79q0-21-15-37t-36-16-37 16-16 37h-78q-21 0-37 15t-16 36v469q0 21 16 37t37 16h260z m0-521v469h-260v-469h260z" horiz-adv-x="678" />
<glyph glyph-name="contrast" unicode="&#xe001;" d="M416 767q173 0 295-122t123-294-123-294-295-122-294 122-122 294 122 294 294 122z m0-729q129 0 221 91t92 221-92 221-221 91-221-91-92-221 92-221 221-91z m0 573q108 0 184-76t77-184-77-184-184-76v520z" horiz-adv-x="834" />
<glyph glyph-name="globe-outline" unicode="&#xe12c;" d="M469 819q194 0 331-138t138-331-138-331-331-138-331 138-138 331 138 331 331 138z m0-313q0-44-6-76t-13-47-15-23-13-9l-6-1v156q0 43 21 73t58 31q34 0 54 26t24 63q-49 15-104 15-105 0-191-53t-133-143q20-19 58-58t57-59q0 6 1 15t14 23 37 14v-104l104-105v-104q49 0 70-1t46-6 33-16 8-30q33 16 44 23t28 21 19 22 8 33 5 45v66l51 53-51 51v-104h-53q0-21-16-37t-37-16-36 16-15 37 15 37 36 16v156q0 21-15 36t-36 15-37-15-16-36z m156-105q0 20 15 36t38 16q21 0 36-15l53-53q15-15 15-37t-15-37l-38-36q-1-113-22-151t-111-83q-10-5-23-5-21 0-36 14t-17 34q-14 4-105 4-21 0-36 16t-15 37v83l-241 241q-20-58-20-115 0-151 107-258t258-107 258 107 107 258q0 109-58 198t-153 133q-10-55-44-88 46-31 46-86v-105z" horiz-adv-x="938" />
<glyph glyph-name="globe" unicode="&#x1d30d;" d="M469 819q194 0 331-138t138-331-138-331-331-138-331 138-138 331 138 331 331 138z m104-105v39q-53 14-104 14-94 0-176-39t-141-108l-28-35-19-30 154-154q0 6 1 15t14 23 37 14v-104l104-105v-104q49 0 70-1t46-6 33-16 8-30q33 16 44 23t28 21 19 22 8 33 5 45v66l51 53-51 51v-104h-53q0-21-16-37t-37-16-36 16-15 37 15 37 36 16v156q0 21-15 36t-36 15-37-15-16-36q0-44-6-76t-13-47-15-23-13-9l-6-1v156q0 43 21 73t58 31 58 31 20 73z" horiz-adv-x="938" />
<glyph glyph-name="globe-alt-outline" unicode="&#xe079;" d="M346 663q-86 0-147-61t-61-148 61-147 147-61 148 61 61 147-61 148-148 61z m0 104q129 0 221-92t92-221-92-221-221-92-221 92-92 221 92 221 221 92z m313-833q21 0 37-16t16-37-16-37-37-16h-520q-21 0-37 16t-16 37 16 37 37 16h208v51q-194 0-331 138-15 15-15 37t15 37 37 15 37-15q106-106 258-106 153 0 259 106t106 258q0 153-106 259l-38 36 108 106q15 15 37 15t37-15 14-37-16-37l-35-35q103-128 103-293 0-194-138-331-96-96-226-125v-64h208z" horiz-adv-x="815" />
<glyph glyph-name="globe-alt" unicode="&#x1f310;" d="M346-66v51q-194 0-331 138-15 15-15 37t15 37 37 15 37-15q106-106 258-106 153 0 259 106t106 258q0 153-106 259l-38 36 108 106q15 15 37 15t37-15 14-36-16-36l-35-36q103-128 103-293 0-194-138-331-96-96-226-125v-64h208q21 0 37-16t16-37-16-37-37-16h-520q-21 0-37 16t-16 37 16 37 37 16h208z m-313 520q0 129 92 221t221 92 221-92 92-221-92-221-221-92-221 92-92 221z" horiz-adv-x="815" />
<glyph glyph-name="sun" unicode="&#x263c;" d="M542 766l-51-153-53 153q-8 21 3 42t31 28q30 10 56-12t14-58z m-469-364l153-53-153-53q-21-8-42 3t-28 32q-10 30 12 56t58 14z m365-469l53 153 51-153q8-21-3-42t-31-28q-30-10-56 12t-14 58z m469 364l-153 53 153 53q21 8 42-3t28-32q10-30-12-56t-58-14z m-675 384l71-145-145 71q-21 10-28 31t3 43q16 31 50 30t49-30z m-74-589l145 71-71-145q-10-21-31-28t-43 3q-31 16-30 50t30 49z m590-74l-71 145 145-71q21-10 28-31t-3-43q-16-31-50-30t-49 30z m74 589l-145-71 71 145q10 21 31 28t43-3q31-16 30-50t-30-49z m-331-493q-96 0-166 69t-69 166 69 166 166 69 165-69 69-166-69-166-165-69z m0 365q-54 0-93-38t-39-92 39-92 93-38 92 38 38 92-38 92-92 38z" horiz-adv-x="980" />
<glyph glyph-name="sun-filled" unicode="&#xe000;" d="M491 614l-53 153q-8 21 3 42t31 28q30 10 56-12t14-58z m-418-211l154-53-154-53q-21-8-42 3t-28 32q-10 30 12 56t58 14z m418-316l51-153q8-21-3-42t-31-28q-30-10-56 12t-14 58z m486 281q10-30-12-56t-58-14l-153 53 153 53q21 8 42-3t28-32z m-819 240q-21 10-28 31t3 43q16 31 50 30t49-30l71-145z m0-614q-31 16-30 50t30 49l145 71-71-145q-10-21-31-28t-43 3z m664 99q21-10 28-31t-3-43q-16-31-50-30t-49 30l-71 145z m0 614q31-16 30-50t-30-49l-145-71 71 145q10 21 31 28t43-3z m-331-121q96 0 165-69t69-166-69-166-165-69-166 69-69 166 69 166 166 69z" horiz-adv-x="980" />
<glyph glyph-name="cloud" unicode="&#xe11f;" d="M781-15h-573q-86 0-148 61t-61 148q0 73 44 128t113 73v8q0 130 92 221t221 91q100 0 181-58t113-152q115 9 197-68t82-191q0-108-76-184t-184-77z m-578 314q-40 0-70-31t-30-74 31-73 74-31h573q65 0 111 46t46 111-46 111-111 46q-19 0-43-8l-56-16-9 58q-14 75-71 124t-134 49q-86 0-148-61t-61-147q0-15 5-43l13-63z" horiz-adv-x="1041" />
<glyph glyph-name="flash-outline" unicode="&#xe06f;" d="M495 767z m0 0l-391-369 261-151-130-313 390 370-260 150z m0 105q43 0 73-31t31-74q0-21-10-44l-93-224 181-105q44-25 51-77t-32-89l-390-370q-31-29-73-29-56 0-86 48t-9 98l95 228-181 105q-44 25-51 76t31 90l390 370q31 29 73 29z" horiz-adv-x="729" />
<glyph glyph-name="flash" unicode="&#x26a1;" d="M598 349q23-13 26-39t-16-45l-391-370q-14-14-35-14-28 0-43 24t-6 49l113 270-220 128q-21 13-25 39t15 45l391 370q11 14 35 14 21 0 37-16t16-37q0-13-5-23l-111-268z" horiz-adv-x="624" />
<glyph glyph-name="moon" unicode="&#xe121;" d="M200-41q-68 0-131 23l-69 26 46 56q101 124 101 285t-101 285l-46 58 69 25q68 24 131 24 161 0 276-115t115-276-115-276-276-114z m-26 105q9-1 26-1 118 0 202 84t84 203-84 203-202 84q-18 0-26-1 79-133 79-285t-79-285z" horiz-adv-x="591" />
<glyph glyph-name="waves-outline" unicode="&#xe11d;" d="M781 715q64 0 110-46t46-110q0-60-40-104 40-44 40-105 0-60-40-104 40-44 40-104 0-65-46-111-110-110-266-110t-266 110q-19 19-46 19t-46-19q-45-45-110-45-64 0-110 46t-46 110q0 60 40 104-40 44-40 104 0 61 40 105-40 44-40 104 0 64 46 110 111 111 266 111t266-111q19-19 46-19t46 19q46 46 110 46z m36-610q15 15 15 37t-15 37-36 15-36-15q-49-49-120-49t-120 49q-80 80-193 80t-193-80q-15-15-15-37t15-37 36-15 36 15q50 50 120 50t120-50q80-80 193-80t193 80z m-698 490q-15-15-15-36t15-36q16-16 36-16t36 16q49 49 120 49t120-49q80-80 193-80t193 80q15 15 15 36t-15 36q-16 16-36 16t-36-16q-49-49-120-49t-120 49q-80 80-193 80t-193-80z m698-281q15 15 15 37t-15 37-36 15-36-15q-50-50-120-50t-120 50q-80 80-193 80t-193-80q-15-15-15-37t15-37 36-15 36 15q49 49 120 49t120-49q80-80 193-80t193 80z" horiz-adv-x="938" />
</font>
</defs>
</svg>
